<?xml version="1.0" standalone="no"?>
<!DOCTYPE svg PUBLIC "-//W3C//DTD SVG 1.1//EN" "http://www.w3.org/Graphics/SVG/1.1/DTD/svg11.dtd" >
<svg xmlns="http://www.w3.org/2000/svg">
<metadata>Generated by IcoMoon</metadata>
<defs>
<font id="car-wash-features" horiz-adv-x="1024">
<font-face units-per-em="1024" ascent="960" descent="-64" />
<missing-glyph horiz-adv-x="1024" />
<glyph unicode="&#x20;" horiz-adv-x="512" d="" />
<glyph unicode="&#x21;" glyph-name="speed-gauge" d="M512 960c-282 0-512-230-512-512s230-512 512-512c282 0 512 230 512 512s-230 512-512 512zM512-22c-258 0-470 212-470 470s212 470 470 470c258 0 470-212 470-470s-212-470-470-470zM784 720c-8 8-22 8-30 0l-198-198c-14 6-28 12-44 12-48 0-86-38-86-86s38-86 86-86c48 0 86 38 86 86 0 16-6 30-12 44l198 198c8 8 8 22 0 30zM512 406c-24 0-42 18-42 42s18 42 42 42c24 0 42-18 42-42s-18-42-42-42zM210 440c0 12-8 22-20 22h-86c-12 0-22-10-22-22s10-22 22-22h86c12 0 20 10 20 22zM208 346l-78-34c-12-4-16-16-12-28 4-8 12-12 20-12 2 0 4 0 8 2l78 32c12 4 16 16 12 28-4 10-16 16-28 12zM894 312l-78 34c-12 4-24-2-28-12-4-12 0-24 12-28l78-32c2-2 6-2 8-2 8 0 16 4 20 12 4 12 0 24-12 28zM918 470h-86c-12 0-22-10-22-22s10-22 22-22h86c12 0 20 10 20 22s-8 22-20 22zM788 562c4-8 12-12 20-12 2 0 6 0 8 0l78 34c12 4 16 16 12 28-4 10-16 16-28 10l-78-32c-12-4-16-16-12-28zM626 724c2-2 6-2 8-2 8 0 16 6 20 14l32 78c6 12 0 24-10 28-12 4-24 0-28-12l-34-78c-4-12 2-24 12-28zM510 738c12 0 20 10 20 22v86c0 12-8 20-20 20s-22-8-22-20v-86c0-12 10-22 22-22zM370 736c4-8 12-14 20-14 2 0 6 0 8 2 10 4 16 16 12 28l-34 78c-4 12-16 16-28 12-10-4-16-16-10-28zM300 690l-60 60c-8 8-22 8-30 0s-8-22 0-30l60-60c4-4 10-8 16-8s10 4 14 8c10 8 10 22 0 30zM224 590l-78 32c-12 6-24 0-28-10-4-12 0-24 12-28l78-34c2 0 6 0 8 0 8 0 16 4 20 12 4 12 0 24-12 28zM704 278h-384c-12 0-22-10-22-22v-128c0-12 10-22 22-22h384c12 0 22 10 22 22v128c0 12-10 22-22 22zM682 150h-340v84h340z" />
<glyph unicode="&#x22;" glyph-name="coffee" d="M966 480c-14 30-34 34-44 34-36 0-52-30-70-58-18-30-38-64-82-80-10 4-20 6-32 4l-12-4v114h42c70 0 128 58 128 128 0 72-58 128-128 128h-42v22c0 12-10 22-22 22h-426c-12 0-22-10-22-22v-390c0 0-2 0-2-2-44 16-64 50-82 80-18 28-34 58-70 58-10 0-30-4-44-34-26-66-4-220 94-318h2c2-8 8-14 16-20 28-16 78-44 134-54 4-10 14-20 26-24 60-22 120-34 180-34 58 0 120 12 178 34 12 4 22 12 28 24 56 8 110 36 138 54 8 6 14 12 18 20v0c98 98 120 252 94 318zM888 434c14 24 24 38 32 38 2 0 8-8 12-32 6-48-8-144-68-220l-62 124c46 22 68 60 86 90zM768 704c48 0 86-38 86-86 0-46-38-84-86-84h-42v170zM682 746v-382l-50-14c-8 8-20 12-32 12h-182c-12 0-22-4-30-10l-90 24v370zM92 440c4 24 10 32 10 32 10 0 20-14 34-38 18-30 40-68 86-90l-62-124c-60 76-74 172-68 220zM304 132c-46 8-88 32-112 46-2 2-2 6-2 8l76 148c2 4 4 4 8 4l92-26zM674 104c-110-42-220-42-328 0-4 0-6 4-4 6l70 204c0 4 2 6 6 6h182c4 0 6-2 8-6l70-202c0-4-2-8-4-8zM832 178c-24-14-70-40-116-48l-62 182 96 26c2 0 6 0 8-4l76-148c0-2 0-6-2-8z" />
<glyph unicode="&#x23;" glyph-name="heating" d="M298 290v566c0 58-48 106-106 106s-106-48-106-106v-566c-54-36-86-96-86-160 0-106 86-192 192-192s192 86 192 192c0 64-32 124-86 160zM192-20c-82 0-150 68-150 150 0 52 30 102 76 128 6 4 10 12 10 20v578c0 34 28 64 64 64s64-30 64-64v-578c0-8 4-16 10-20 46-26 76-76 76-128 0-82-68-150-150-150zM214 190v452c0 12-10 22-22 22s-22-10-22-22v-452c-24-10-42-32-42-60 0-36 28-64 64-64s64 28 64 64c0 28-18 50-42 60zM192 108c-12 0-22 10-22 22s10 22 22 22c12 0 22-10 22-22s-10-22-22-22zM490 770c-30 0-60-4-90-12-10-4-16-16-14-28 4-10 16-18 28-14 24 8 50 12 76 12 142 0 256-114 256-256 0-140-114-256-256-256-18 0-38 2-56 6-12 4-24-4-26-16-4-10 4-22 16-24 22-6 44-8 66-8 166 0 300 134 300 298s-134 298-300 298zM490 834c12 0 22 10 22 22v84c0 12-10 22-22 22s-20-10-20-22v-84c0-12 8-22 20-22zM806 816l-60-60c-8-8-8-22 0-30 4-4 10-6 16-6 4 0 10 2 14 6l60 60c10 8 10 22 0 30-8 8-20 8-30 0zM960 492h-86c-12 0-20-10-20-20 0-12 8-22 20-22h86c12 0 22 10 22 22 0 10-10 20-22 20zM772 212c-8 10-22 10-30 0-8-8-8-22 0-30l60-60c6-4 10-6 16-6s10 2 16 6c8 8 8 22 0 30zM490 108c-12 0-20-10-20-20v-86c0-12 8-22 20-22s22 10 22 22v86c0 10-10 20-22 20z" />
<glyph unicode="&#x24;" glyph-name="toolbox" d="M960 662h-258c-10 96-92 170-190 170s-180-74-190-170h-258c-12 0-22-10-22-22v-598c0-12 10-20 22-20h896c12 0 22 8 22 20v598c0 12-10 22-22 22zM512 790c76 0 136-56 148-128h-296c12 72 72 128 148 128zM938 618v-170h-340v22c0 12-10 20-22 20h-128c-12 0-22-8-22-20v-22h-340v170zM470 448h84v-128h-84zM86 64v342h340v-108c0-12 10-20 22-20h128c12 0 22 8 22 20v108h340v-342z" />
<glyph unicode="&#x25;" glyph-name="engine-belt-2" d="M932 868c-62 64-148 96-234 92-88-4-170-46-226-116l-434-596c-58-78-48-186 20-254 36-38 86-58 138-58 42 0 82 14 116 38l598 434c68 56 110 138 114 226s-30 172-92 234zM884 442l-598-434c-26-18-56-28-90-28v0c-40 0-78 16-108 44-54 54-60 138-16 198l434 596c48 60 118 96 194 98 4 2 8 2 14 2 70 0 138-28 188-80 54-52 82-126 78-202-2-76-38-146-96-194zM214 278c-72 0-128-58-128-128 0-72 56-128 128-128 70 0 128 56 128 128 0 70-58 128-128 128zM214 64c-48 0-86 38-86 86 0 46 38 84 86 84 46 0 84-38 84-84 0-48-38-86-84-86zM726 874c-118 0-214-96-214-212 0-118 96-214 214-214 116 0 212 96 212 214 0 116-96 212-212 212zM726 490c-94 0-172 78-172 172s78 170 172 170c94 0 170-76 170-170s-76-172-170-172zM726 790c-72 0-128-58-128-128 0-72 56-128 128-128 70 0 128 56 128 128 0 70-58 128-128 128zM726 576c-48 0-86 38-86 86 0 46 38 84 86 84 46 0 84-38 84-84 0-48-38-86-84-86zM768 662c0-24-20-44-42-44-24 0-44 20-44 44 0 22 20 42 44 42 22 0 42-20 42-42zM256 150c0-24-20-44-42-44-24 0-44 20-44 44 0 22 20 42 44 42 22 0 42-20 42-42z" />
<glyph unicode="&#x26;" glyph-name="wrench-screwdriver" d="M1018 890l-64 64c-8 8-20 8-28 2l-150-104c-6-4-10-10-10-16s2-12 6-18l40-40-424-424-76 74c-8 10-22 10-30 0-8-8-8-22 0-30l30-30-266-264c-16-18-24-38-24-62 0-22 8-44 24-60s38-24 60-24c24 0 44 8 62 24l264 266 30-30c4-4 10-6 16-6 4 0 10 2 14 6 8 8 8 22 0 30l-74 76 424 424 36-34c4-4 10-8 16-8 0 0 0 0 0 0 6 2 12 4 16 10l110 146c6 8 6 20-2 28zM136 12c-16-16-44-16-60 0-8 8-12 20-12 30 0 12 4 22 12 30l266 266 60-60zM890 760l-70 70 116 80 38-38zM252 584l150-148 30 30-160 158c-6 8-16 8-24 6-56-24-120-12-164 30-34 36-50 84-40 132l62-58c4-4 10-6 16-6h84c12 0 22 10 22 22v84c0 6-2 12-6 14l-58 66c48 10 96-6 132-40 44-44 56-108 32-164-4-8-2-18 4-24l160-160 30 30-150 150c24 70 6 146-46 198-56 56-136 70-208 40-6-2-10-8-12-14-2-8 0-14 6-20l74-84v-56h-56l-82 76c-6 6-12 8-20 6-6-2-12-6-14-12-30-72-14-154 40-210 52-52 128-68 198-46zM764 316l-152 150-30-30 160-160c6-6 16-8 24-4 56 24 120 10 164-32 36-36 50-86 40-134l-66 62c-4 4-10 6-14 6h-86c-12 0-22-10-22-22v-86c0-4 2-10 6-14l64-64c-48-10-98 4-134 40-42 44-54 108-32 164 4 8 2 18-4 24l-160 160-30-30 150-150c-22-70-6-146 46-198 38-36 86-56 136-56 26 0 50 4 76 16 6 2 10 8 12 14 2 8 0 14-6 20l-80 84v54h56l86-78c4-6 12-6 18-6 6 2 12 6 16 12 30 74 14 156-42 212-52 52-128 70-196 46z" />
<glyph unicode="&#x27;" glyph-name="pen" d="M980 794l-122 122c-8 8-20 8-30 0l-16-18c-42 28-98 24-134-12l-242-242c-8-8-8-22 0-30 4-4 10-6 16-6s10 2 14 6l242 242c20 18 48 22 72 12l-192-194-422-422c-10-8-10-22 0-30l14-16-76-74c-8-10-8-22 0-32l16-14-76-76c-8-8-8-22 0-30 4-4 10-6 16-6 4 0 10 2 14 6l76 76 16-16c4-4 8-6 14-6s12 2 16 6l74 76 16-14c4-4 10-8 14-8 6 0 12 4 16 8l422 422 242 240c8 10 8 22 0 30zM240 146l-60-60-14 14c0 0 0 0 0 2h-2l-14 14 60 60 16-14zM300 146l-44 46-30 30-16 14 392 392 46-44 46-46zM724 568l-92 92 196 196c0 0 0 0 0 0s0 0 0 0l16 14 90-90z" />
<glyph unicode="&#x28;" glyph-name="certificate" d="M1002 960h-980c-12 0-22-10-22-22v-682c0-12 10-22 22-22h490c12 0 22 10 22 22s-10 22-22 22h-470v640h940v-342c0-12 8-22 20-22s22 10 22 22v362c0 12-10 22-22 22zM790 448c-48 0-86-38-86-86 0-46 38-84 86-84 46 0 84 38 84 84 0 48-38 86-84 86zM790 320c-24 0-44 20-44 42 0 24 20 44 44 44 22 0 42-20 42-44 0-22-20-42-42-42zM974 470c-18 32-54 52-92 52v0c-20 34-54 54-92 54-40 0-74-20-92-54-2 0-2 0-2 0-38 0-72-20-92-52-18-34-18-74 0-108-18-32-18-72 0-106 10-16 22-28 36-36v-262c0-8 4-16 12-20s16-2 22 2l116 96 114-96c4-2 8-4 14-4 2 0 6 0 8 2 8 4 12 12 12 20v262c14 8 28 20 36 36 20 34 20 74 0 106 20 34 20 74 0 108zM896 2l-94 78c-6 6-18 6-26 0l-94-78v202c6 0 10-2 14-2h2c18-32 52-52 92-52 38 0 72 20 92 52 0 0 0 0 0 0 4 0 10 2 14 2zM938 278c-14-24-40-36-66-32-10 2-20-4-24-14-8-24-32-40-58-40-28 0-50 16-60 40-4 10-12 14-20 14-2 0-2 0-4 0-26-4-52 8-64 32-14 22-12 50 6 72 6 8 6 18 0 26-18 20-20 50-6 72 12 22 38 34 64 32 10-2 20 4 24 12 10 26 32 42 60 42 26 0 50-16 58-42 4-8 14-14 24-12 26 4 52-10 66-32 12-22 10-52-6-72-6-8-6-18 0-26 16-22 18-50 6-72zM918 598c12 0 20 8 20 20v108c0 12-8 20-20 20-60 0-108 48-108 108 0 12-8 20-20 20h-556c-12 0-20-8-20-20 0-60-48-108-108-108-12 0-20-8-20-20v-256c0-12 8-22 20-22 60 0 108-48 108-106 0-12 8-22 20-22h278c12 0 22 10 22 22s-10 20-22 20h-258c-8 66-60 118-126 128v216c66 8 118 60 126 126h516c8-66 60-118 126-126v-88c0-12 10-20 22-20z" />
<glyph unicode="&#x29;" glyph-name="fax" d="M554 874h192v-42h-192zM554 790h300v-44h-300zM960 704h-22v150c0 6-2 12-8 16l-106 86c-4 2-8 4-14 4h-320c-12 0-20-10-20-22v-234h-44c0 58-48 106-106 106h-106v128c0 12-10 22-22 22s-22-10-22-22v-130c-48-10-84-52-84-104h-22c-36 0-64-28-64-64v-554c0-36 28-64 64-64h24c10-50 52-86 104-86h128c52 0 94 36 104 86h536c36 0 64 28 64 64v554c0 36-28 64-64 64zM42 86v554c0 12 10 22 22 22h22v-598h-22c-12 0-22 10-22 22zM384 42c0-34-28-64-64-64h-128c-36 0-64 30-64 64v662c0 36 28 64 64 64h128c36 0 64-28 64-64zM512 918h292l92-74v-140h-384zM982 86c0-12-10-22-22-22h-534v598h534c12 0 22-10 22-22zM832 618h-256c-12 0-22-8-22-20v-86c0-12 10-22 22-22h256c12 0 22 10 22 22v86c0 12-10 20-22 20zM810 534h-212v42h212zM554 406h44v-44h-44zM682 406h44v-44h-44zM810 406h44v-44h-44zM554 320h44v-42h-44zM682 320h44v-42h-44zM810 320h44v-42h-44zM554 234h44v-42h-44zM682 234h44v-42h-44zM810 234h44v-42h-44z" />
<glyph unicode="&#x2a;" glyph-name="caution-fence" d="M1002 746h-192v46c38 10 64 44 64 82 0 48-38 86-84 86-48 0-86-38-86-86 0-38 28-72 64-82v-46h-512v46c36 10 64 44 64 82 0 48-38 86-86 86-46 0-84-38-84-86 0-38 26-72 64-82v-46h-192c-12 0-22-8-22-20v-300c0-12 10-20 22-20h64v-448c0-12 8-22 20-22s22 10 22 22v448h768v-448c0-12 10-22 22-22s20 10 20 22v448h64c12 0 22 8 22 20v300c0 12-10 20-22 20zM746 874c0 24 20 44 44 44 22 0 42-20 42-44 0-22-20-42-42-42-24 0-44 20-44 42zM192 874c0 24 20 44 42 44 24 0 44-20 44-44 0-22-20-42-44-42-22 0-42 20-42 42zM72 448l256 256h154l-256-256zM542 704h196l-256-256h-196zM798 704h154l-256-256h-154zM268 704l-226-226v226zM756 448l226 226v-226z" />
<glyph unicode="&#x2b;" glyph-name="hose-nozzle" d="M746.667 917.333h-128c-65.707 0-123.733-33.237-158.379-83.755l-313.941-44.459c-0.171-0.043-0.256-0.128-0.427-0.128-80.725-1.877-145.92-67.84-145.92-148.992v-426.667c0-11.776 9.557-21.333 21.333-21.333 82.347 0 149.333 66.987 149.333 149.333v192h42.667v-405.333c0-35.285 28.715-64 64-64h21.333v-128h42.667v128h21.333c35.285 0 64 28.715 64 64v405.333h32.512c34.517-51.413 93.099-85.333 159.488-85.333h128c35.285 0 64 28.715 64 64v341.333c0 35.285-28.715 64-64 64zM128 341.333c0-51.499-36.693-94.635-85.333-104.533v403.2c0 51.499 36.693 94.635 85.333 104.533v-403.2zM384 128c0-11.733-9.557-21.333-21.333-21.333h-85.333c-11.776 0-21.333 9.6-21.333 21.333v405.333h128v-405.333zM438.144 576h-267.477v173.44l266.667 37.803c-1.024-2.944-1.493-6.059-2.347-9.045-1.792-6.229-3.712-12.288-4.864-18.688-2.133-11.349-3.456-22.741-3.456-34.176v-85.333c0-11.733 1.28-23.339 3.499-34.731 1.365-7.296 3.627-14.165 5.76-21.12 0.853-2.731 1.237-5.504 2.219-8.149zM489.472 566.485c0 0.085 0 0.171-0.043 0.213-5.248 9.259-9.216 18.688-12.416 28.288-1.067 3.371-2.304 6.656-3.157 10.112-0.853 3.243-1.408 6.528-2.005 9.856-1.408 8.192-2.517 16.469-2.517 25.045v85.333c0 8.747 1.109 17.152 2.603 25.515 0.597 3.2 1.195 6.357 2.005 9.515 1.024 4.352 2.517 8.448 3.925 12.587 3.413 9.771 7.595 19.371 13.184 28.672 0.043 0.043 0.043 0.128 0.085 0.171 26.069 43.477 73.259 72.875 127.531 72.875h21.333v-384h-21.333c-55.509 0-103.467 30.805-129.195 75.819zM768 512c0-11.733-9.557-21.333-21.333-21.333h-64v384h64c11.776 0 21.333-9.6 21.333-21.333v-341.333zM874.667 661.333h84.651c11.776 0 21.333 9.557 21.333 21.333s-9.515 21.333-21.333 21.333h-84.651c-11.776 0-21.333-9.557-21.333-21.333s9.557-21.333 21.333-21.333zM879.787 769.195c3.413 0 6.912 0.853 10.112 2.56l74.496 40.192c10.368 5.632 14.251 18.56 8.661 28.928-5.589 10.411-18.56 14.165-28.885 8.661l-74.496-40.192c-10.368-5.632-14.251-18.56-8.661-28.928 3.84-7.168 11.179-11.221 18.773-11.221zM964.395 553.344l-74.496 40.192c-10.325 5.504-23.296 1.707-28.885-8.661s-1.749-23.296 8.661-28.928l74.496-40.192c3.2-1.707 6.699-2.56 10.112-2.56 7.595 0 14.933 4.053 18.773 11.221 5.589 10.368 1.707 23.296-8.661 28.928z" />
<glyph unicode="&#x2c;" glyph-name="testimonials" d="M248 372l-156-62 54 96c6 8 4 20-4 26-64 50-100 124-100 200 0 152 154 274 342 274s342-122 342-274h42c0 176-172 318-384 318s-384-142-384-318c0-84 36-164 100-220l-76-134c-4-8-4-18 2-26 4-4 10-6 16-6 4 0 6 0 8 0l208 84c18-6 38-10 56-12l6 42c-20 2-40 6-58 12-4 2-10 2-14 0zM944 90c52 48 80 108 80 176 0 150-146 278-320 278s-320-128-320-278c0-152 140-282 306-282 42 0 82 8 122 24l162-60c2 0 4-2 8-2 6 0 12 4 16 8 6 6 6 16 2 24zM818 52c-2 0-4 2-8 2-2 0-6-2-8-2-36-16-74-24-112-24-142 0-264 108-264 238 0 128 128 236 278 236s278-108 278-236c0-60-26-112-78-154-8-6-10-16-6-26l40-78z" />
<glyph unicode="&#x2d;" glyph-name="headlight" d="M512 960c-282 0-512-230-512-512s230-512 512-512c282 0 512 230 512 512s-230 512-512 512zM512-22c-258 0-470 212-470 470s212 470 470 470c258 0 470-212 470-470s-212-470-470-470zM630 632c-64 0-118-52-118-114v-186c0-64 54-116 118-116 116 0 212 94 212 208 0 116-96 208-212 208zM630 260c-40 0-76 32-76 72v186c0 40 36 72 76 72 92 0 168-74 168-166 0-90-76-164-168-164zM450 448h-216c-12 0-20-10-20-22s8-20 20-20h216c12 0 20 8 20 20s-8 22-20 22zM450 576h-216c-12 0-20-10-20-22s8-20 20-20h216c12 0 20 8 20 20s-8 22-20 22zM450 320h-216c-12 0-20-10-20-22s8-20 20-20h216c12 0 20 8 20 20s-8 22-20 22z" />
<glyph unicode="&#x2e;" glyph-name="team" d="M448 378v58c16 12 40 40 42 104 18 12 28 38 28 64 0 14-4 26-10 36-2 4-6 8-10 12 10 22 24 60 14 100-16 60-90 80-150 80-52 0-118-16-142-62-26 0-38-10-46-20-16-26 0-68 12-98-4-2-8-6-12-12-6-10-10-22-10-38 0-24 10-50 28-62 4-64 26-92 42-104v-58c-80-34-234-102-234-144v-192c0-12 10-20 22-20h640c12 0 20 8 20 20v192c0 42-154 110-234 144zM640 64h-598v166c18 18 112 68 222 112 8 4 14 12 14 20v86c0 8-6 16-14 20 0 0-30 14-30 86 0 12-6 22-18 22-6 2-12 24-8 38 2 4 4 4 6 4 12 0 20 10 20 22 0 6-2 14-8 26-18 42-18 56-16 60 0 0 8 2 20 0s22 4 26 16c6 28 52 48 106 48 56 0 102-20 108-48 8-32-6-62-14-80-4-10-6-16-6-22 0-12 10-22 22-22 0 0 4-4 4-14 0-14-6-26-6-28-12 0-22-10-22-22 0-72-28-86-28-86-8-2-14-10-14-20v-86c0-8 4-16 12-20 110-44 206-94 222-112zM894 312c-20 8-42 14-62 22v38c16 10 38 34 42 84 14 12 22 36 22 62 0 8-2 22-8 34-2 4-4 8-6 12 10 18 24 50 12 82-14 46-78 64-126 64-42 0-96-14-118-48-16 2-30-4-38-14-20-22-8-58 2-82-4-4-8-8-10-12-6-12-8-26-8-36 0-26 8-50 24-62 2-50 26-74 42-84v-30c0-12 8-22 20-22s22 10 22 22v42c0 10-6 18-16 20 0 0-26 10-26 66 0 10-8 18-16 20-6 10-10 38-6 44 12 0 22 8 22 20 0 6-2 12-6 22-10 24-14 40-12 44 0 0 2 2 14 0 10-4 20 2 24 14 6 18 44 32 86 32s80-14 86-32c8-22-6-44-14-58-4-8-8-14-8-22 0-12 6-20 18-20 6-6 4-34-2-44-10-2-16-10-16-20 0-56-26-66-28-66-8-2-14-10-14-20v-64c0-8 4-16 12-20 26-10 52-20 76-28 38-14 90-32 104-42v-166h-214c-12 0-22-10-22-22s10-20 22-20h234c12 0 22 8 22 20v192c0 30-38 44-130 78z" />
<glyph unicode="&#x2f;" glyph-name="person" d="M980 140c-32 62-140 102-288 156-16 6-34 14-52 20v102c18 16 58 58 64 126 10 8 16 22 22 40 6 30 2 66-18 88 0 2 2 6 4 10 16 40 46 118 34 178-14 74-120 100-204 100-66 0-148-16-172-62-26-4-46-14-60-32-36-50-10-138 6-186 0-2 0-6 2-8-22-20-26-56-20-88 6-18 12-32 22-40 6-68 46-110 64-126v-102c-18-6-36-14-52-20-148-54-256-94-288-156-44-88-44-178-44-182 0-12 10-22 22-22h980c12 0 22 10 22 22 0 4 0 94-44 182zM44-22c2 30 12 88 40 142 22 48 134 90 262 136 22 8 44 16 66 26 10 2 14 10 14 20v128c0 6-2 12-8 16-2 2-56 38-56 112 0 8-6 18-16 20-4 6-10 26-8 46 2 10 6 18 12 20 8 4 12 12 12 20 0 6-2 12-6 28-10 34-36 116-10 148 6 10 20 16 38 16 10 0 18 6 20 16 6 22 58 46 138 46 74 0 154-24 162-66 10-48-18-118-32-154-8-20-10-26-10-34s4-16 12-20c6-2 10-10 12-20 2-20-4-40-8-46-10-2-16-12-16-20 0-74-54-110-56-112-6-4-8-10-8-16v-128c0-10 4-18 14-20 22-10 44-18 66-26 128-46 240-88 262-136 28-54 38-112 40-142z" />
<glyph unicode="&#x30;" glyph-name="tunning" d="M1002 960h-980c-12 0-22-10-22-22v-640c0-12 10-20 22-20h448v-98l-208-208c-8-8-8-22 0-30s22-8 30 0l198 198 198-198c6-4 10-6 16-6s10 2 16 6c8 8 8 22 0 30l-208 208v98h490c12 0 22 8 22 20v640c0 12-10 22-22 22zM982 320h-940v598h940zM106 362h812c12 0 20 10 20 22v470c0 12-8 20-20 20h-812c-12 0-20-8-20-20v-470c0-12 8-22 20-22zM896 832v-426h-768v170h150c6 0 12 2 16 8l64 80 70-160c4-8 10-12 18-14 0 0 2 0 2 0 6 0 12 4 16 8l92 110 68-68c6-4 12-8 18-6 6 0 12 4 16 8l148 214c8 10 6 22-4 30-10 6-24 4-30-6l-134-192-68 68c-4 4-10 6-16 6s-12-4-16-8l-84-102-72 160c-2 8-10 12-16 14-8 0-16-2-20-8l-78-100h-140v214z" />
<glyph unicode="&#x31;" glyph-name="phone-call-24h" d="M732 270c-40 40-110 40-150 0l-16-16c-88 74-174 158-248 248l16 16c42 42 42 108 0 150l-90 92c-40 40-110 40-150 0l-50-50c-50-50-58-130-20-188 146-222 340-416 562-562 24-16 52-24 82-24 40 0 78 16 106 44l50 50c20 20 30 46 30 74 0 30-10 56-30 76zM792 60l-48-50c-36-36-94-40-134-14-216 144-406 334-550 550-28 42-22 98 14 134l50 48c12 12 28 20 44 20 18 0 34-8 46-20l90-90c26-24 26-66 0-90l-30-30c-8-8-8-20-2-28 84-102 180-198 282-282 8-6 20-6 28 2l30 30c24 24 66 24 90 0l90-90c14-12 20-28 20-46 0-16-6-32-20-44zM876 658v142c0 8-6 16-16 20-8 2-18-2-24-8l-112-164c-6-6-6-14-2-22 4-6 10-12 18-12h92v-70c0-12 10-22 22-22s22 10 22 22v70c10 2 20 10 20 22s-10 22-20 22zM832 658h-50l50 72zM510 556c-4-8-4-16 0-22 4-8 10-12 18-12h122c12 0 22 10 22 22 0 10-10 20-22 20h-80l88 126c4 6 14 22 14 48 0 46-36 82-82 82-44 0-80-34-82-78 0-12 8-22 20-22s22 8 22 20c2 20 18 38 40 38s40-18 40-40c0-12-4-18-8-24z" />
<glyph unicode="&#x32;" glyph-name="phone" d="M946 212l-104 106c-46 44-124 44-170 0l-22-22c-104 86-204 186-290 290l22 22c46 46 46 122 0 170l-106 104c-44 46-124 46-170 0l-56-58c-58-56-66-146-22-212 168-256 392-480 648-648 28-18 60-28 94-28 44 0 86 18 118 50l58 56c22 24 36 54 36 86s-14 62-36 84zM916 74l-58-58c-40-42-110-48-158-16-252 166-470 384-636 636-34 50-26 116 16 158l58 58c14 14 34 22 54 22s40-8 54-22l106-104c30-30 30-80 0-110l-36-34c-8-8-8-22-2-30 96-116 208-228 324-324 8-6 22-6 30 2l34 36c30 28 80 28 110 0l104-106c14-14 22-34 22-54s-8-40-22-54z" />
<glyph unicode="&#x33;" glyph-name="video" d="M512 960c-282 0-512-230-512-512s230-512 512-512c282 0 512 230 512 512s-230 512-512 512zM512-22c-258 0-470 212-470 470s212 470 470 470c258 0 470-212 470-470s-212-470-470-470zM756 468l-384 192c-6 2-14 2-20-2s-10-10-10-18v-384c0-8 4-14 10-18 2-2 6-4 10-4s8 2 10 2l384 192c8 4 12 12 12 20s-4 16-12 20zM384 290v316l314-158z" />
<glyph unicode="&#x34;" glyph-name="image" d="M1002 960h-980c-12 0-22-10-22-22v-980c0-12 10-22 22-22h980c12 0 22 10 22 22v980c0 12-10 22-22 22zM982 918v-684h-30l-146 290c-14 32-46 52-82 52-34 0-64-18-80-46l-114-194c-32 40-104 112-188 112-106 0-184-162-206-214h-94v684zM904 234h-722c32 66 94 172 160 172 94 0 172-118 174-120 4-6 10-8 18-8s14 4 18 10l128 220c10 16 26 26 44 26s36-12 44-28zM42-22v214h940v-214zM278 576h128c70 0 128 58 128 128s-58 128-128 128c-56 0-104-34-122-86-48 4-92-36-92-84s38-86 86-86zM278 704c4 0 10 0 14-4 6-2 14 0 20 2 4 4 8 10 10 16 6 42 42 72 84 72 46 0 84-38 84-86s-38-86-84-86h-128c-24 0-44 20-44 44 0 22 20 42 44 42z" />
<glyph unicode="&#x35;" glyph-name="images" d="M982 726v-748h-748v-42h768c12 0 22 10 22 22v768zM938 42v812h-42v-790h-790v-42h812c12 0 20 8 20 20zM854 128v810c0 12-10 22-22 22h-810c-12 0-22-10-22-22v-810c0-12 10-22 22-22h810c12 0 22 10 22 22zM810 918v-598h-70l-122 328c-4 6-10 12-18 14-8 0-16-4-20-10l-156-232-88 106c-4 4-10 8-18 8-6-2-12-6-16-12l-122-202h-138v598zM694 320h-464l92 156 88-106c4-4 10-8 18-8 6 2 12 4 16 10l148 222zM42 150v128h768v-128zM256 662c48 0 86 38 86 84 0 48-38 86-86 86s-86-38-86-86c0-46 38-84 86-84zM256 790c24 0 42-20 42-44 0-22-18-42-42-42s-42 20-42 42c0 24 18 44 42 44z" />
<glyph unicode="&#x36;" glyph-name="quote" d="M470 832c-260 0-470-210-470-470v-64c0-128 106-234 234-234 130 0 236 106 236 234 0 130-106 236-236 236-74 0-140-36-184-90 38 196 212 346 420 346 12 0 20 8 20 20s-8 22-20 22zM234 490c106 0 192-86 192-192s-86-192-192-192c-106 0-192 86-192 192s86 192 192 192zM1002 832c-258 0-468-210-468-470v-64c0-128 104-234 234-234s234 106 234 234c0 130-104 236-234 236-74 0-142-36-184-90 38 196 212 346 418 346 12 0 22 8 22 20s-10 22-22 22zM768 490c106 0 192-86 192-192s-86-192-192-192c-106 0-192 86-192 192s86 192 192 192z" />
<glyph unicode="&#x37;" glyph-name="screwdriver" d="M1018 890l-64 64c-8 8-22 8-30 0l-128-128c-8-8-8-22 0-30l16-18-446-446-76 76c-8 8-22 8-30 0-8-10-8-22 0-30l30-32-264-264c-18-16-26-38-26-60 0-24 8-44 24-62 18-16 38-24 62-24 22 0 44 8 60 24l264 266 32-30c4-4 8-6 14-6s12 2 16 6c8 8 8 22 0 30l-46 46c0 0 0 0 0 0l-30 30 446 446 18-16c4-4 10-6 14-6 6 0 12 2 16 6l128 128c8 8 8 22 0 30zM116-8c-16-18-44-18-60 0-8 8-14 18-14 30 0 10 6 22 14 30l264 264 60-60zM874 776l-34 34 98 98 34-34z" />
<glyph unicode="&#x38;" glyph-name="signal-warning" d="M496 832h-6c-96-2-188-40-258-110-68-70-106-162-104-260 4-198 160-356 356-356h8c202 4 364 170 362 370-4 200-160 356-358 356zM490 150h-6c-172 0-310 138-314 314 0 84 32 166 94 228 60 62 142 96 228 98h4c174 0 312-138 314-316 4-176-140-322-320-324zM490 402c12 0 22 10 22 20v218c0 12-10 22-22 22s-20-10-20-22v-218c0-10 8-20 20-20zM490 346v0c-16-2-30-16-30-32 0-18 14-30 30-30h2c16 0 30 14 30 30 0 18-14 32-32 32zM42 470c0 124 50 240 142 326 8 8 8 20 0 30-8 8-22 8-30 0-100-94-154-220-154-356s56-266 156-360c4-4 10-6 14-6 6 0 12 4 16 8 8 8 8 22 0 30-92 84-144 204-144 328zM826 828c-8 8-22 8-30-2-8-8-8-22 2-30 90-86 140-202 140-326s-52-244-142-328c-8-8-8-22 0-30 4-6 8-8 14-8s12 2 16 6c98 92 156 224 156 360 0 134-58 264-156 358z" />
<glyph unicode="&#x39;" glyph-name="snow-crystal" d="M968 364c-6 10-20 14-30 8l-84-52-58 30 64 38c10 6 14 20 8 30s-20 12-30 6l-84-50-28 14v154l26 14 86-50c4-2 8-4 10-4 8 0 16 4 20 10 6 12 2 24-8 30l-64 38 58 30 84-52c4-2 8-2 12-2 6 0 14 4 18 10 6 10 2 24-8 30l-64 38 52 26c10 6 14 20 10 30-6 10-20 14-30 8l-50-26 4 72c0 12-8 22-20 22-12 2-22-8-24-20l-4-98-56-30 4 72c0 12-8 22-20 24s-22-8-24-20l-4-100-28-14-152 102v32l86 52c10 6 12 18 6 28s-18 14-28 8l-64-38v64l86 50c10 6 12 20 6 30s-18 14-28 8l-64-38v56c0 12-8 22-20 22s-22-10-22-22v-58l-64 38c-10 6-22 4-28-6s-4-24 6-30l86-52v-62l-64 38c-10 4-22 2-28-8s-4-24 6-30l86-50v-32l-152-102-26 14-6 100c0 10-12 20-22 20-12-2-22-12-20-24l4-72-56 30-6 98c-2 12-12 22-22 20-12 0-22-10-20-22l4-72-52 26c-10 6-22 2-28-8s-2-24 8-30l52-26-64-38c-10-6-12-20-6-30 4-6 10-10 18-10 4 0 8 0 10 2l86 52 56-30-64-38c-10-6-12-20-6-30 4-6 10-10 18-10 4 0 8 2 10 4l86 50 28-14v-154l-28-14-86 50c-10 6-22 4-28-6s-4-24 6-30l64-38-56-30-86 52c-10 6-22 2-28-8s-4-24 6-30l64-38-52-26c-10-6-14-20-8-30 4-6 10-10 18-10 4 0 8 0 10 2l52 26-4-72c-2-12 8-22 20-22 0 0 0 0 0 0 12 0 20 8 22 20l6 98 56 30-4-72c-2-12 8-22 20-24 0 0 0 0 0 0 12 0 22 10 22 20l6 100 26 14 152-102v-30l-86-52c-10-6-12-20-6-30s18-12 28-6l64 38v-64l-86-52c-10-6-12-18-6-28s18-14 28-8l64 38v-58c0-12 10-22 22-22s20 10 20 22v58l64-38c2-2 6-4 10-4 8 0 14 4 18 10 6 10 4 24-6 30l-86 52v62l64-36c2-4 6-4 10-4 8 0 14 4 18 10 6 10 4 24-6 30l-86 50v32l152 102 28-14 4-100c2-10 10-20 22-20 0 0 0 0 2 0 12 2 20 12 20 24l-4 72 56-30 4-98c2-12 10-20 22-20 0 0 2 0 2 0 12 0 20 10 20 22l-4 72 50-26c4-2 6-2 10-2 8 0 16 4 20 10 4 10 0 24-10 30l-52 26 64 38c10 6 14 20 8 30zM682 386l-148-100-150 100v158l150 100 148-100z" />
<glyph unicode="&#x3a;" glyph-name="spray-bottle" d="M917.333 746.667h-170.667c-11.776 0-21.333-9.557-21.333-21.333s9.557-21.333 21.333-21.333h170.667c11.776 0 21.333 9.557 21.333 21.333s-9.557 21.333-21.333 21.333zM905.088 563.968l-169.344 94.677c-10.283 5.717-23.296 2.091-29.056-8.192s-2.091-23.296 8.192-29.056l169.344-94.677c3.285-1.835 6.869-2.688 10.411-2.688 7.467 0 14.72 3.925 18.645 10.923 5.76 10.24 2.091 23.253-8.192 29.013zM725.333 789.333c2.517 0 4.992 0.427 7.467 1.365l167.979 62.635c11.051 4.096 16.683 16.384 12.544 27.435-4.139 11.093-16.469 16.64-27.477 12.501l-168.021-62.677c-11.051-4.096-16.683-16.384-12.544-27.435 3.243-8.533 11.392-13.824 20.053-13.824zM618.667 789.333h-21.333v21.333c0 11.776-9.557 21.333-21.333 21.333h-437.333c-8.363 0-16-4.907-19.456-12.587l-96-213.333c-2.944-6.613-2.389-14.251 1.536-20.309s10.667-9.771 17.92-9.771h144.512l-140.373-512.981c-6.059-31.403 2.133-63.531 22.4-88.192 20.395-24.661 50.389-38.827 82.304-38.827h326.4c35.285 0 68.181 17.365 88.021 46.421 19.883 29.099 24.107 66.048 11.392 98.901l-192.384 494.677h66.688c-1.109-61.952 23.296-153.259 126.165-170.368 1.195-0.213 2.432-0.299 3.584-0.299 10.197 0 19.243 7.381 20.992 17.835 1.92 11.605-5.931 22.613-17.536 24.533-82.517 13.739-90.837 92.075-90.197 128.299h22.699c6.016 0 11.648 2.517 15.701 6.912l58.667 64c3.627 3.925 5.632 9.088 5.632 14.421v42.667h21.333c11.776 0 21.333 9.557 21.333 21.333v42.667c0 11.776-9.557 21.333-21.333 21.333zM537.6 65.877c7.637-19.712 5.077-41.941-6.869-59.435-11.904-17.365-31.659-27.776-52.821-27.776h-326.4c-19.115 0-37.12 8.491-49.365 23.296-12.16 14.805-17.067 34.091-13.781 51.413l143.061 522.624h107.776l198.4-510.123zM554.667 669.611l-46.72-50.944h-432.299l76.8 170.667h402.219v-119.723z" />
<glyph unicode="&#x3b;" glyph-name="youtube" d="M856 790h-688c-92 0-168-76-168-168v-390c0-92 76-168 168-168h688c92 0 168 76 168 168v390c0 92-76 168-168 168zM982 232c0-70-56-126-126-126h-688c-70 0-126 56-126 126v390c0 68 56 124 126 124h688c70 0 126-56 126-124zM416 646c-6 4-14 4-20 0-8-2-12-10-12-18v-370c0-8 4-14 12-18 2-2 6-2 10-2s8 0 10 2l290 186c6 4 10 10 10 18 0 6-4 14-10 18zM426 298v292l228-146z" />
<glyph unicode="&#x3c;" glyph-name="fax-2" d="M918 704h-448c0 58-48 106-108 106h-106v128c0 12-10 22-22 22s-20-10-20-22v-130c-50-10-86-52-86-104h-22c-34 0-64-28-64-64v-554c0-36 30-64 64-64h24c10-50 54-86 104-86h128c52 0 96 36 106 86h450c34 0 64 28 64 64v554c0 36-30 64-64 64zM86 86v554c0 12 8 22 20 22h22v-598h-22c-12 0-20 10-20 22zM426 42c0-34-28-64-64-64h-128c-34 0-64 30-64 64v662c0 36 30 64 64 64h128c36 0 64-28 64-64zM938 86c0-12-8-22-20-22h-448v598h448c12 0 20-10 20-22zM832 618h-256c-12 0-22-8-22-20v-86c0-12 10-22 22-22h256c12 0 22 10 22 22v86c0 12-10 20-22 20zM810 534h-212v42h212zM554 406h44v-44h-44zM682 406h44v-44h-44zM810 406h44v-44h-44zM554 320h44v-42h-44zM682 320h44v-42h-44zM810 320h44v-42h-44zM554 234h44v-42h-44zM682 234h44v-42h-44zM810 234h44v-42h-44z" />
<glyph unicode="&#x3d;" glyph-name="facebook" d="M816 654c-4 4-10 8-16 8h-160v60c0 12 2 26 22 26h128c12 0 20 8 20 20v168c0 12-8 22-20 22h-186c-204 0-220-174-220-226v-70h-106c-12 0-22-10-22-22v-170c0-12 10-22 22-22h106v-490c0-12 10-22 22-22h212c12 0 22 10 22 22v490h142c12 0 22 8 22 20l18 170c0 6-2 12-6 16zM764 490h-146c-12 0-20-8-20-20v-492h-172v492c0 12-8 20-20 20h-108v128h108c12 0 20 10 20 22v92c0 68 24 184 178 184h164v-126h-106c-30 0-64-18-64-68v-82c0-12 8-22 20-22h160z" />
<glyph unicode="&#x3e;" glyph-name="user-chat" d="M1002 960h-640c-12 0-20-10-20-22v-170h42v150h598v-342h-136c-6 0-10-2-14-6l-128-134v118c0 12-10 22-22 22h-84v-42h64v-150c0-8 4-16 12-20 4 0 6-2 8-2 6 0 12 2 16 8l158 164h146c12 0 22 8 22 20v384c0 12-10 22-22 22zM810 746h44v-42h-44zM682 746h44v-42h-44zM554 746h44v-42h-44zM448 206v60c14 12 36 40 38 102 18 12 28 38 28 64 0 22-8 40-20 50 8 22 22 60 12 100-16 58-90 80-148 80-52 0-116-18-140-62-26 0-40-10-46-20-18-28 0-70 14-98-16-10-26-30-26-56 0-28 12-50 32-58 4-62 26-90 42-102v-60c-80-32-234-100-234-142v-106c0-12 10-22 22-22h640c12 0 20 10 20 22v106c0 42-154 110-234 142zM640-22h-598v82c18 18 112 68 222 112 8 4 14 12 14 20v86c0 8-6 16-14 20 0 0-30 14-30 86 0 12-8 22-20 22-8 0-12 12-12 20 0 10 4 22 12 22 12 0 20 10 20 22 0 6-2 14-8 26-18 42-20 56-18 60 0 0 8 2 20 0 10-4 22 4 24 14 8 32 60 48 106 48s98-16 106-48c8-30-6-60-14-78-4-10-6-16-6-22 0-12 10-22 22-22 0 0 2 0 4-4 4-16-2-36-4-38-6 0-12-2-16-6s-6-10-6-16c0-72-26-86-24-86-10-4-14-12-14-20v-86c0-8 4-16 12-20 110-44 206-94 222-112z" />
<glyph unicode="&#x3f;" glyph-name="vacuum-cleaner" d="M980.267-35.925l-42.667 128c-2.944 8.704-11.093 14.592-20.267 14.592h-106.667v576c0 129.408-105.301 234.667-234.667 234.667s-234.667-105.259-234.667-234.667v-21.333h-64c-11.776 0-21.333-9.557-21.333-21.333v-67.371c-56.619-9.728-106.88-42.368-143.829-94.976-79.573-113.323-86.101-294.571-17.408-484.907 3.072-8.448 11.051-14.080 20.053-14.080h227.029c19.541-25.771 50.133-42.667 84.821-42.667 58.837 0 106.667 47.872 106.667 106.667 0 43.605-26.368 81.109-64 97.621v499.712c0 11.776-9.557 21.333-21.333 21.333h-64v21.333c0 105.856 86.144 192 192 192s192-86.144 192-192v-576h-106.667c-9.173 0-17.323-5.888-20.267-14.592l-42.667-128c-2.176-6.485-1.067-13.653 2.944-19.243 4.011-5.547 10.453-8.832 17.323-8.832h341.333c6.869 0 13.312 3.285 17.28 8.875 4.053 5.547 5.12 12.715 2.987 19.2zM291.541 533.333h135.125v-128h-305.707c7.509 17.024 15.915 33.237 26.112 47.787 36.352 51.755 87.637 80.213 144.469 80.213zM490.667 42.667c0-35.285-28.715-64-64-64s-64 28.715-64 64 28.715 64 64 64 64-28.715 64-64zM320 42.667c0-7.296 0.768-14.421 2.176-21.333h-192.213c-43.307 126.677-51.029 246.997-24.405 341.333h321.109v-213.333c-58.837 0-106.667-47.872-106.667-106.667zM426.667 576h-128v42.667h128v-42.667zM648.235-21.333l28.459 85.333h225.237l28.459-85.333h-282.155z" />
<glyph unicode="&#x40;" glyph-name="air-conditioning" d="M912 362l-82-50-40 22 58 34c10 6 14 18 8 30-6 10-18 12-28 6l-80-44-66 36v146l64 36 82-46c2-2 6-2 10-2 8 0 14 4 18 10 6 12 2 24-8 30l-60 34 40 22 84-50c4-2 8-2 12-2 6 0 14 4 18 10 6 10 2 24-8 30l-64 36 56 32c10 6 14 18 8 30-6 10-20 12-30 6l-50-28v78c0 12-10 22-22 22s-22-10-22-22v-102l-42-26v86c0 12-10 20-22 20-10 0-20-8-20-20v-110l-64-36-150 106v32l84 52c10 6 14 18 8 28s-20 14-30 8l-62-38v62l86 52c10 6 14 20 6 30-6 10-18 12-28 6l-64-38v58c0 12-10 22-22 22-10 0-20-10-20-22v-58l-62 38c-10 6-24 4-30-8-6-10-2-22 8-28l84-52v-62l-64 38c-10 6-22 2-28-8s-4-24 6-30l86-50v-34l-98-64c-10-6-12-20-6-30s20-12 30-6l96 64 148-104v-148l-148-106-96 64c-10 6-24 4-30-6s-4-24 6-30l98-64v-254c0-12 10-22 20-22 12 0 22 10 22 22v58l62-38c4-2 8-4 12-4 6 0 14 4 18 10 6 10 2 24-8 30l-84 52v64l62-38c4-4 8-4 12-4 6 0 14 4 18 10 6 10 2 24-8 30l-84 52v30l150 106 64-36v-108c0-12 10-22 20-22 12 0 22 10 22 22v84l42-24v-104c0-12 10-20 22-20s22 8 22 20v80l52-30c2-2 6-2 10-2 8 0 14 4 18 10 6 10 2 24-8 30l-54 30 62 36c10 6 14 20 8 30s-20 14-30 8zM298 288v566c0 58-48 106-106 106s-106-48-106-106v-566c-54-36-86-96-86-160 0-106 86-192 192-192s192 86 192 192c0 64-32 124-86 160zM192-22c-82 0-150 68-150 150 0 52 30 102 76 130 6 2 10 10 10 18v578c0 34 28 64 64 64s64-30 64-64v-578c0-8 4-16 10-18 46-28 76-78 76-130 0-82-68-150-150-150zM214 188v452c0 12-10 22-22 22s-22-10-22-22v-452c-24-8-42-32-42-60 0-36 28-64 64-64s64 28 64 64c0 28-18 52-42 60zM192 106c-12 0-22 10-22 22s10 22 22 22c12 0 22-10 22-22s-10-22-22-22z" />
<glyph unicode="&#x41;" glyph-name="lightbulb" d="M490 746c-152 0-276-124-276-276 0-122 78-228 192-264v-36c0-12 8-20 20-20h128c12 0 22 8 22 20v36c114 36 192 142 192 264 0 152-124 276-278 276zM550 242c-10-2-16-10-16-20v-30h-86v30c0 10-6 18-16 20-104 28-176 120-176 228 0 128 106 234 234 234 130 0 236-106 236-234 0-108-74-200-176-228zM512 22h-42c-12 0-22-10-22-22s10-22 22-22h42c12 0 22 10 22 22s-10 22-22 22zM554 106h-128c-12 0-20-8-20-20s8-22 20-22h128c12 0 22 10 22 22s-10 20-22 20zM490 790c12 0 22 8 22 20v86c0 12-10 22-22 22s-20-10-20-22v-86c0-12 8-20 20-20zM918 490h-86c-12 0-22-8-22-20s10-22 22-22h86c12 0 20 10 20 22s-8 20-20 20zM150 490h-86c-12 0-22-8-22-20s10-22 22-22h86c12 0 20 10 20 22s-8 20-20 20zM234 696c4-4 10-6 16-6 4 0 10 2 14 6 8 8 8 22 0 30l-90 90c-8 8-22 8-30 0s-8-22 0-30zM732 690c6 0 10 2 16 6l90 90c8 8 8 22 0 30s-22 8-30 0l-92-90c-8-8-8-22 0-30 6-4 10-6 16-6z" />
<glyph unicode="&#x42;" glyph-name="gps" d="M238 22c6 0 12 2 16 8 10 10 222 266 222 392 0 132-106 240-238 240-130 0-238-108-238-240 0-126 214-382 222-392 4-6 10-8 16-8zM238 618c108 0 196-88 196-196 0-84-128-262-196-346-66 84-196 262-196 346 0 108 88 196 196 196zM342 422c0 58-46 104-104 104-56 0-102-46-102-104 0-56 46-102 102-102 58 0 104 46 104 102zM178 422c0 34 28 60 60 60 34 0 60-26 60-60 0-32-26-60-60-60-32 0-60 28-60 60zM832 362h-214c-12 0-20-8-20-20v-364h-360c-12 0-20-8-20-20s8-22 20-22h380c12 0 22 10 22 22v362h192c12 0 22 10 22 22s-10 20-22 20zM832 406c6 0 12 2 16 8 18 20 176 212 176 312 0 106-86 192-192 192s-192-86-192-192c0-100 158-292 176-312 4-6 10-8 16-8zM832 874c82 0 150-66 150-148 0-64-96-198-150-266-54 68-150 202-150 266 0 82 68 148 150 148zM918 726c0 46-38 84-86 84s-86-38-86-84c0-48 38-86 86-86s86 38 86 86zM790 726c0 22 18 42 42 42s42-20 42-42c0-24-18-44-42-44s-42 20-42 44z" />
<glyph unicode="&#x43;" glyph-name="oil-can" d="M832 918h-384c-58 0-106-48-106-108v-106h-44v106c0 12-8 22-20 22h-172c-12 0-20-10-20-22v-106h-22c-12 0-22-10-22-22v-682c0-36 30-64 64-64h768c36 0 64 28 64 64v810c0 60-48 108-106 108zM128 790h128v-86h-128zM896 0c0-12-10-22-22-22h-768c-12 0-20 10-20 22v662h276c12 0 22 8 22 20v128c0 36 28 64 64 64h384c36 0 64-28 64-64zM790 832h-300c-34 0-64-28-64-64v-42c0-36 30-64 64-64h300c34 0 64 28 64 64v42c0 36-30 64-64 64zM810 726c0-12-8-22-20-22h-300c-12 0-20 10-20 22v42c0 12 8 22 20 22h300c12 0 20-10 20-22zM716 556c-8 8-20 8-30 0l-196-196-196 196c-8 8-22 8-30 0s-8-22 0-30l196-196-196-196c-8-10-8-22 0-32 4-4 10-6 16-6 4 0 10 2 14 6l196 198 196-198c4-4 10-6 16-6s10 2 14 6c10 10 10 22 0 32l-196 196 196 196c10 8 10 22 0 30z" />
<glyph unicode="&#x44;" glyph-name="oil-gauge" d="M972 560c-126 76-268 122-416 134l-2-44c130-8 258-48 372-114l-184-184c-58 26-120 42-184 48l-4-42c64-6 126-24 184-52 2 0 6-2 8-2 6 0 12 4 16 8l214 214c4 4 6 10 6 18 0 6-4 12-10 16zM492 234c-10 0-20-2-30-4l-86 120c18 4 34 6 52 8l-4 42c-26-2-50-8-76-12l-112 156c-6 8-20 10-30 4s-12-20-4-30l102-142c-20-8-42-16-64-24l-184 184c114 66 242 104 372 114l-4 42c-146-10-290-56-414-132-6-4-10-10-10-16 0-8 2-14 6-18l214-214c6-4 10-8 16-8 4 0 6 2 10 2 26 14 56 24 86 32l92-128c-24-20-40-48-40-82 0-58 48-106 108-106 58 0 106 48 106 106s-48 106-106 106zM492 64c-36 0-64 28-64 64s28 64 64 64c34 0 64-28 64-64s-30-64-64-64zM490 790c12 0 22 8 22 20v44c0 12-10 20-22 20s-20-8-20-20v-44c0-12 8-20 20-20zM490 662c12 0 22 8 22 20v44c0 12-10 20-22 20s-20-8-20-20v-44c0-12 8-20 20-20zM490 534c12 0 22 8 22 20v44c0 12-10 20-22 20s-20-8-20-20v-44c0-12 8-20 20-20zM490 406c12 0 22 8 22 20v44c0 12-10 20-22 20s-20-8-20-20v-44c0-12 8-20 20-20zM490 278c12 0 22 8 22 20v44c0 12-10 20-22 20s-20-8-20-20v-44c0-12 8-20 20-20z" />
<glyph unicode="&#x45;" glyph-name="oil-station" d="M448 406h-86c-12 0-20-10-20-22v-170c0-12 8-22 20-22h86c12 0 22 10 22 22v170c0 12-10 22-22 22zM426 234h-42v128h42zM1016 538c10 8 10 22 2 30-8 10-20 10-30 2-50-44-134-126-134-164v-320c0-36-30-64-64-64-36 0-64 28-64 64v576c0 46-38 84-86 84h-42v150c0 12-10 22-22 22h-554c-12 0-22-10-22-22v-896c0-12 10-22 22-22h554c12 0 22 10 22 22v704h42c24 0 42-20 42-42v-576c0-60 48-108 108-108 58 0 106 48 106 108v114l74 36c6 4 12 12 12 20v86c0 12-10 20-22 20h-64v42c2 18 64 84 120 134zM554 874v-298h-512v298zM42 22v512h512v-512zM938 270l-42-22v72h42zM106 618h384c12 0 22 10 22 22v170c0 12-10 22-22 22h-384c-12 0-20-10-20-22v-170c0-12 8-22 20-22zM128 790h342v-128h-342zM448 150h-86c-12 0-20-10-20-22s8-22 20-22h86c12 0 22 10 22 22s-10 22-22 22z" />
<glyph unicode="&#x46;" glyph-name="piggy-bank" d="M490 724c-12 0-22-10-20-22 0-12 10-20 22-20 72 4 142-16 200-60 4-2 8-4 12-4 6 0 12 4 18 10 6 8 4 22-6 30-64 48-144 72-226 66zM1024 554c0 12-10 22-22 22s-20-10-20-22c0-28-20-52-44-60-16 188-200 338-426 338-32 0-62-4-94-10-32 46-84 74-140 74-30 0-60-8-86-24-6-2-10-10-10-18s4-14 10-18c30-18 52-46 60-80-84-54-142-134-160-222h-70c-12 0-22-10-22-22v-170c0-12 10-22 22-22h102c36-70 100-126 174-164v-134c0-12 10-22 22-22s22 10 22 22v116c52-20 110-32 170-32s118 12 170 32v-116c0-12 10-22 22-22s22 10 22 22v134c120 60 204 168 212 294 48 10 86 52 86 104zM512 150c-158 0-298 78-356 200-4 8-12 12-20 12h-94v128h68c10 0 20 8 20 18 14 88 70 168 156 220 8 4 12 12 10 22-4 38-22 72-50 100 54 14 114-12 142-62 6-8 14-12 24-10 34 8 68 12 100 12 212 0 384-144 384-320 0-178-172-320-384-320zM298 534c0-24-18-44-42-44s-42 20-42 44c0 22 18 42 42 42s42-20 42-42z" />
<glyph unicode="&#x47;" glyph-name="road" d="M326 960c-10 2-22-4-26-16l-300-980c-2-12 4-24 16-28 2 0 4 0 6 0 8 0 16 6 20 16l298 980c4 12-2 24-14 28zM980-36l-298 980c-4 12-16 18-26 16-12-4-18-16-16-28l300-980c2-10 10-16 20-16 2 0 4 0 6 0 12 4 18 16 14 28zM490 150c-12 0-20-10-20-22v-170c0-12 8-22 20-22s22 10 22 22v170c0 12-10 22-22 22zM490 490c-12 0-20-8-20-20v-172c0-12 8-20 20-20s22 8 22 20v172c0 12-10 20-22 20zM490 790c-12 0-20-10-20-22v-128c0-12 8-22 20-22s22 10 22 22v128c0 12-10 22-22 22zM490 960c-12 0-20-10-20-22v-42c0-12 8-22 20-22s22 10 22 22v42c0 12-10 22-22 22z" />
<glyph unicode="&#x48;" glyph-name="seatbelt-lock" d="M568 510c40 42 40 110 0 152l-94 92 46 46c8 8 8 22 0 30l-122 120c-8 8-22 8-30 0l-166-166-150 152c-8 8-22 8-30 0-8-10-8-22 0-30l150-152-166-166c-4-4-6-10-6-14 0-6 2-12 6-16l120-120c6-4 10-6 16-6s10 2 16 6l44 44 94-92c20-20 46-32 74-32 30 0 56 12 76 32zM354 634l48-48-32-30-46 48zM142 482l-90 92 332 332 90-92zM326 420l-94 92 60 62 64-64c4-4 10-6 14-6 6 0 12 2 16 6l60 60c8 8 8 22 0 30l-62 64 60 60 92-94c26-24 26-64 0-90l-120-120c-24-24-66-24-90 0zM1018-28l-152 150 136 136c8 8 8 22 0 30l-212 212c-2 2-6 4-12 6l-104 14c-8 2-14 0-18-6l-212-210c-4-6-8-12-6-18l14-106c2-4 4-10 6-12l212-212c4-4 10-6 16-6 4 0 10 2 14 6l136 136 150-150c6-4 10-6 16-6s10 2 16 6c8 8 8 22 0 30zM686 2l-192 190-12 88 196 196 88-12 190-190zM882 288l-122 120c-8 8-22 8-30 0l-180-180c-4-4-6-10-6-16 0-4 2-10 6-14l120-120c4-6 10-8 16-8 4 0 10 2 14 8l182 180c8 8 8 22 0 30zM686 122l-92 90 152 152 90-90zM866 704h-140c-12 0-22-10-22-22s10-22 22-22h192c2 0 6 2 8 2 2 2 4 2 6 4 0 0 0 0 0 0 2 2 2 2 2 2 2 2 2 4 4 6 0 2 0 4 0 8 0 0 2 0 2 0v192c0 12-10 22-22 22s-22-10-22-22v-140l-204 204c-8 8-22 8-30 0-8-10-8-22 0-32zM116 234h140c12 0 22 10 22 22 0 10-10 20-22 20h-192c-2 0-6 0-8-2-2 0-4-2-6-4 0 0 0 0 0 0-2 0-2 0-2-2-2 0-2-2-4-4 0-2 0-6 0-8 0 0 0 0 0 0v-192c0-12 8-22 20-22s22 10 22 22v140l220-218c4-4 10-6 14-6 6 0 12 2 16 6 8 8 8 22 0 30z" />
<glyph unicode="&#x49;" glyph-name="share-time" d="M598 150h-78c-26 28-80 84-178 84h-128v22c0 12-10 22-22 22h-170c-12 0-22-10-22-22v-298c0-12 10-22 22-22h170c12 0 22 10 22 22v20h704c12 0 20 10 20 22 0 88-180 150-340 150zM170-22h-128v256h128zM214 22v170h128c54 0 92-22 118-42h-162c-12 0-20-10-20-22s8-22 20-22h300c142 0 256-46 288-84zM576 768c-12 0-22-10-22-22v-234c0-12 10-22 22-22h214c12 0 20 10 20 22s-8 22-20 22h-192v212c0 12-10 22-22 22zM220 384c12 4 18 16 14 26-14 40-20 82-20 124 0 212 172 384 384 384s384-172 384-384c0-124-60-240-160-312-10-6-12-20-4-30 4-6 10-8 18-8 4 0 8 0 12 4 110 80 176 210 176 346 0 234-192 426-426 426-236 0-428-192-428-426 0-48 8-94 22-136 4-12 16-18 28-14z" />
<glyph unicode="&#x4a;" glyph-name="steering-wheel" d="M512 960c-282 0-512-230-512-512s230-512 512-512c282 0 512 230 512 512s-230 512-512 512zM512-22c-258 0-470 212-470 470s212 470 470 470c258 0 470-212 470-470s-212-470-470-470zM512 832c-212 0-384-172-384-384s172-384 384-384c212 0 384 172 384 384s-172 384-384 384zM512 790c144 0 266-90 316-214-206 56-426 56-632 0 50 124 172 214 316 214zM174 406c140-2 252-116 252-256 0-12 0-22-2-32-132 36-232 148-250 288zM466 110c2 14 4 26 4 40 0 164-134 298-300 298 0 28 4 54 10 80 214 64 450 64 664 0 6-26 10-52 10-80-166 0-300-134-300-298 0-16 2-28 4-40-16-2-30-4-46-4s-30 2-46 4zM600 118c-2 10-2 20-2 32 0 140 112 254 252 256-18-140-118-252-250-288zM598 448c0 48-38 86-86 86s-86-38-86-86c0-48 38-86 86-86s86 38 86 86zM512 406c-24 0-42 18-42 42s18 42 42 42c24 0 42-18 42-42s-18-42-42-42z" />
<glyph unicode="&#x4b;" glyph-name="car-audio" d="M512 554c-58 0-106-48-106-106s48-106 106-106c58 0 106 48 106 106s-48 106-106 106zM512 384c-36 0-64 28-64 64s28 64 64 64c36 0 64-28 64-64s-28-64-64-64zM512 832c-212 0-384-172-384-384s172-384 384-384c212 0 384 172 384 384s-172 384-384 384zM512 106c-188 0-342 154-342 342s154 342 342 342c188 0 342-154 342-342s-154-342-342-342zM922 220c38 70 60 148 60 228s-22 158-60 228l64 66c50 50 50 130 0 180-48 48-132 48-180 0l-66-64c-140 78-316 78-456 0l-66 64c-48 48-132 48-180 0-50-50-50-130 0-180l64-66c-38-70-60-148-60-228s22-158 60-228l-64-66c-50-50-50-130 0-180 48-48 132-48 180 0l66 64c140-78 316-78 456 0l66-64c24-24 56-38 90-38s66 14 90 38c50 50 50 130 0 180zM956 4c-32-32-88-32-120 0l-76 76c-6 4-10 6-16 6-4 0-8 0-12-2-134-82-306-82-440 0-10 4-20 4-28-4l-76-76c-32-32-88-32-120 0-34 32-34 88 0 120l76 76c8 8 8 18 4 28-42 66-62 142-62 220s20 154 62 220c4 10 4 20-4 26l-76 78c-34 32-34 88 0 120 32 32 88 32 120 0l78-76c6-8 16-8 26-4 134 82 306 82 440 0 10-4 20-4 28 4l76 76c32 32 88 32 120 0 34-32 34-88 0-120l-76-78c-8-6-8-16-4-26 42-66 62-142 62-220s-20-154-62-220c-4-10-4-20 4-28l76-76c34-32 34-88 0-120zM170 832c0-24-18-42-42-42s-42 18-42 42c0 24 18 42 42 42s42-18 42-42zM938 832c0-24-18-42-42-42s-42 18-42 42c0 24 18 42 42 42s42-18 42-42zM938 64c0-24-18-42-42-42s-42 18-42 42c0 24 18 42 42 42s42-18 42-42zM170 64c0-24-18-42-42-42s-42 18-42 42c0 24 18 42 42 42s42-18 42-42z" />
<glyph unicode="&#x4c;" glyph-name="engine-belt" d="M1002 662c0 116-96 212-212 212-88 0-164-54-198-130 0 0 0 0 0 0l-212-388c-12 2-24 4-36 4l-92 140c2 10 4 22 4 34 0 70-58 128-128 128s-128-58-128-128c0-64 48-118 108-126l94-144c-6-20-10-40-10-60 6-80 70-142 150-142h8c40 2 76 20 104 50 26 30 40 68 38 108 0 0-2 2-2 4l402 252c66 36 110 104 110 186zM790 832c94 0 170-76 170-170 0-64-36-118-86-148-2 0-2 0-2-2l-6-2c-22-12-48-20-76-20-94 0-172 78-172 172s78 170 172 170zM42 534c0 46 38 84 86 84s86-38 86-84c0-48-38-86-86-86s-86 38-86 86zM158 410c28 6 54 24 72 46l68-102c-26-8-48-22-66-42-2-2-4-4-6-6zM422 140c-20-22-46-34-74-36h-6c-56 0-104 46-106 102-2 28 8 56 26 76 20 22 46 34 74 36h6c56 0 104-44 106-100 2-30-8-56-26-78zM420 338l160 292c14-96 92-172 190-180l-290-182c-12 30-34 54-60 70zM790 534c70 0 128 56 128 128 0 70-58 128-128 128-72 0-128-58-128-128 0-72 56-128 128-128zM790 746c46 0 84-38 84-84 0-48-38-86-84-86-48 0-86 38-86 86 0 46 38 84 86 84z" />
<glyph unicode="&#x4d;" glyph-name="camper" d="M1002 832h-810c-8 0-16-6-20-12l-128-300c-2-6-2-14 2-20s10-10 18-10h114l-88-158-84-82c-4-4-6-10-6-16v-192c0-12 10-20 22-20h86c10-50 54-86 106-86 50 0 94 36 104 86h388c10-50 54-86 104-86 52 0 96 36 106 86h86c12 0 22 8 22 20v768c0 12-10 22-22 22zM426 150v256h556v-256zM706 64h-388c-4 16-10 30-20 42h428c-10-12-16-26-20-42zM206 790h776v-342h-556v64c0 12-8 22-20 22h-310zM122 304c2 2 2 4 4 6l100 180h158v-340h-342v76zM42 106h86c-8-12-16-26-20-42h-66zM214-22c-36 0-64 30-64 64 0 36 28 64 64 64 34 0 64-28 64-64 0-34-30-64-64-64zM810-22c-34 0-64 30-64 64 0 36 30 64 64 64 36 0 64-28 64-64 0-34-28-64-64-64zM916 64c-4 16-12 30-20 42h86v-42zM182 280c4-2 6-2 10-2 8 0 16 4 20 12l58 116h50c12 0 22 8 22 20s-10 22-22 22h-64c-8 0-16-4-20-12l-64-128c-4-10 0-24 10-28zM234 576h172c12 0 20 10 20 22v128c0 12-8 20-20 20h-128c-10 0-18-6-20-14l-44-128c-2-6 0-14 4-20 4-4 10-8 16-8zM292 704h92v-86h-120zM534 576h384c12 0 20 10 20 22v128c0 12-8 20-20 20h-384c-12 0-22-8-22-20v-128c0-12 10-22 22-22zM554 704h342v-86h-342z" />
<glyph unicode="&#x4e;" glyph-name="wallet" d="M768 362c0-22-20-42-42-42-24 0-44 20-44 42 0 24 20 44 44 44 22 0 42-20 42-44zM234 662h-42c-12 0-22-10-22-22s10-22 22-22h42c12 0 22 10 22 22s-10 22-22 22zM362 662h-42c-12 0-22-10-22-22s10-22 22-22h42c12 0 22 10 22 22s-10 22-22 22zM490 662h-42c-12 0-22-10-22-22s10-22 22-22h42c12 0 22 10 22 22s-10 22-22 22zM576 618h42c12 0 22 10 22 22s-10 22-22 22h-42c-12 0-22-10-22-22s10-22 22-22zM704 618h42c12 0 22 10 22 22s-10 22-22 22h-42c-12 0-22-10-22-22s10-22 22-22zM234 106h-42c-12 0-22-8-22-20s10-22 22-22h42c12 0 22 10 22 22s-10 20-22 20zM362 106h-42c-12 0-22-8-22-20s10-22 22-22h42c12 0 22 10 22 22s-10 20-22 20zM490 106h-42c-12 0-22-8-22-20s10-22 22-22h42c12 0 22 10 22 22s-10 20-22 20zM618 106h-42c-12 0-22-8-22-20s10-22 22-22h42c12 0 22 10 22 22s-10 20-22 20zM682 86c0-12 10-22 22-22h42c12 0 22 10 22 22s-10 20-22 20h-42c-12 0-22-8-22-20zM918 490h-22v108c0 58-36 110-86 134v78c0 60-66 108-148 108h-512c-84 0-150-68-150-150v-640c0-82 66-150 150-150h596c84 0 150 68 150 150v106h22c58 0 106 48 106 108v42c0 58-48 106-106 106zM854 128c0-58-48-106-108-106h-596c-60 0-108 48-108 106v640c0 58 48 106 108 106h512c56 0 106-30 106-64v-66c-8 2-14 2-22 2h-596c-12 0-22 10-22 22s10 22 22 22h512c12 0 20 8 20 20s-8 22-20 22h-512c-36 0-64-28-64-64s28-64 64-64h596c60 0 108-48 108-106v-108h-150c-58 0-106-48-106-106v-42c0-60 48-108 106-108h150zM982 342c0-36-30-64-64-64h-214c-36 0-64 28-64 64v42c0 36 28 64 64 64h214c34 0 64-28 64-64z" />
<glyph unicode="&#x4f;" glyph-name="parking-sensor" d="M768 768c8-10 22-10 30 0 8 8 8 20 0 30-216 216-568 216-786 0-8-10-8-22 0-30 4-6 10-8 16-8 4 0 10 2 14 8 200 200 526 200 726 0zM406 726c4 0 6 0 10 0 20 0 40-2 60-6 70-14 134-48 184-100 4-4 10-6 16-6 4 0 10 2 14 6 8 10 8 22 0 30-10 10-18 20-30 28-50 42-110 70-176 84v0c-12 2-24 4-36 4-2 0-2 2-2 2-8 0-18 0-26 0-4 0-10 2-14 2v0c-4 0-8-2-12-2-90-2-174-34-244-90-10-8-20-18-30-28-8-8-8-20 0-30 8-8 22-8 30 0 66 66 152 104 244 106 4 0 8 0 12 0zM552 474c4-4 10-6 16-6 4 0 10 2 14 6 8 10 8 22 0 30-12 14-24 24-38 32-2 2-4 2-4 2-28 18-56 30-86 36-6 0-10 0-16 2-10 0-22 2-32 2-64 0-128-24-178-74-8-8-8-20 0-30 8-8 22-8 30 0 82 82 214 82 294 0zM406 388c-54 0-98-44-98-98s44-98 98-98c54 0 98 44 98 98s-44 98-98 98zM406 234c-30 0-56 26-56 56s26 54 56 54c30 0 54-24 54-54s-24-56-54-56zM1020-26l-232 464c-8 14-32 14-40 0l-234-470c-4-6-2-14 2-20s10-10 18-10h468c0 0 2 0 2 0 12 0 20 10 20 20 0 6-2 12-4 16zM568-20l200 400 200-400zM746 236v-128c0-12 10-22 22-22s22 10 22 22v128c0 12-10 22-22 22s-22-10-22-22zM790 44c0-12-10-22-22-22s-22 10-22 22c0 12 10 22 22 22s22-10 22-22z" />
<glyph unicode="&#x50;" glyph-name="wrench" d="M984 792c-2 6-8 10-16 10-6 2-12 0-18-6l-134-134h-84v90l132 134c4 6 6 12 6 20-2 6-6 12-12 14-42 22-90 34-136 34-82 0-156-32-212-88-90-88-114-220-64-334l-408-408c-20-20-32-46-32-74 0-30 12-56 32-76s46-32 76-32c28 0 54 12 74 32l408 408c40-16 80-26 122-26 80 0 156 32 212 88 92 92 114 232 54 348zM900 474c-48-48-112-76-182-76-40 0-80 10-116 28-8 6-18 4-24-4l-420-418c-24-24-66-24-90 0-12 12-18 28-18 46 0 16 6 32 18 44l420 420c6 6 8 16 4 24-52 100-32 218 48 298 48 48 112 74 182 74 30 0 60-4 90-16l-116-118c-4-4-6-10-6-16v-120c0-12 8-20 20-20h114c6 0 12 2 16 6l118 118c36-92 14-198-58-270z" />
<glyph unicode="&#x51;" glyph-name="wrench-double" d="M768 312l-136 136 136 134c68-22 146-4 196 48 56 54 72 134 42 206-4 8-10 12-16 14-8 0-14-2-20-6l-74-80h-60v68l74 74c6 6 8 14 6 20 0 8-6 12-12 16-72 30-156 14-210-42-52-52-70-128-48-196l-134-136-134 136c22 68 4 144-48 196-54 56-134 72-206 42-8-4-12-10-14-16 0-8 2-14 6-20l80-74v-68h-68l-74 80c-6 4-12 6-20 6-6-2-12-6-16-14-30-72-14-154 42-208 52-52 128-70 196-46l136-134-136-136c-68 24-146 6-196-46-56-54-72-138-42-210 4-6 10-12 16-12 6-2 14 0 20 6l74 74h68v-60l-80-74c-4-6-6-12-6-20 2-6 6-12 14-16 24-10 48-14 74-14 50 0 98 20 134 56 52 50 68 126 44 196l136 136 136-136c-24-68-6-144 46-196 36-38 84-58 134-58 26 0 52 6 76 16 6 4 12 8 12 16 2 6 0 14-6 20l-74 74v60h60l74-74c6-6 14-8 20-6 8 0 12 6 16 12 30 72 14 156-42 210-52 52-128 70-196 46zM276 622c-6 6-14 8-22 4-58-24-122-12-164 32-36 34-50 82-42 130l56-60c4-4 10-6 16-6h96c12 0 22 10 22 22v96c0 6-2 12-6 16l-60 56c46 8 94-6 128-42 44-42 56-106 32-164-2-8-2-16 6-22l144-146-60-60zM332 190c24-58 12-122-30-164-34-34-82-50-130-42l60 56c4 4 6 10 6 16v90c0 12-10 22-22 22h-96c-6 0-12-2-16-6l-56-58c-8 48 6 98 42 132 42 44 108 56 164 32 8-2 16-2 22 6l410 410c6 6 8 14 6 22-24 56-12 122 32 164 34 34 84 50 132 42l-58-56c-4-4-6-10-6-16v-96c0-12 10-22 22-22h90c6 0 12 2 16 6l56 60c8-48-6-94-42-128-42-44-108-56-164-32-8 2-16 0-22-6l-410-410c-8-6-8-14-6-22zM976 104l-56 58c-4 4-10 6-16 6h-90c-12 0-22-10-22-22v-90c0-6 2-12 6-16l58-56c-48-8-98 6-132 42-44 42-56 106-32 164 2 8 0 16-6 22l-144 146 60 60 146-146c6-6 14-8 22-4 56 24 122 12 164-32 36-34 50-84 42-132z" />
<glyph unicode="&#x52;" glyph-name="windshield" d="M1012 744c-332 174-670 174-1000 0-10-4-14-14-12-24l128-554c2-8 8-12 14-16 2 0 4 0 8 0s8 0 12 4c46 32 90 58 136 78v-222c0-12 10-22 22-22s22 10 22 22v238c112 38 226 38 340-2v-236c0-12 10-22 22-22s22 10 22 22v220c44-20 90-44 136-76 6-4 14-6 20-4 6 4 12 8 14 16l128 554c2 10-2 20-12 24zM860 206c-44 30-90 52-134 70v194l90-92c6-4 10-6 16-6s10 2 16 6c8 8 8 22 0 30l-128 128c-2 2-6 4-8 4-6 4-10 4-16 0-2 0-6-2-8-4l-128-128c-8-8-8-22 0-30 10-8 22-8 32 0l90 92v-178c-58 18-114 28-172 28-56 0-112-10-168-28v178l90-92c6-4 10-6 16-6s10 2 16 6c8 8 8 22 0 30l-128 128c-2 2-6 4-8 4-6 4-10 4-16 0-2 0-6-2-8-4l-128-128c-8-8-8-22 0-30 10-8 22-8 32 0l90 92v-192c-44-18-90-42-134-72l-118 508c308 156 622 156 932 0z" />
<glyph unicode="&#x53;" glyph-name="alarm" d="M874 64c-34 0-64 28-64 64v192c0 116-66 222-170 270-8 64-62 114-128 114s-120-50-128-114c-104-48-170-154-170-270v-192c0-36-30-64-64-64-12 0-22-10-22-22s10-20 22-20h258c10-50 52-86 104-86s94 36 104 86h258c12 0 22 8 22 20s-10 22-22 22zM512-22c-28 0-52 18-60 44h120c-8-26-32-44-60-44zM234 64c14 18 22 40 22 64v192c0 104 62 196 158 236 8 4 12 12 12 20 0 48 38 86 86 86s86-38 86-86c0-8 4-16 12-20 96-40 158-132 158-236v-192c0-24 8-46 22-64zM384 832c-142 0-256-114-256-256 0-12 10-22 22-22s20 10 20 22c0 118 96 214 214 214 12 0 22 8 22 20s-10 22-22 22zM384 918c12 0 22 8 22 20s-10 22-22 22c-212 0-384-172-384-384 0-12 10-22 22-22s20 10 20 22c0 188 154 342 342 342zM640 832c-12 0-22-10-22-22s10-20 22-20c118 0 214-96 214-214 0-12 8-22 20-22s22 10 22 22c0 142-114 256-256 256zM640 960c-12 0-22-10-22-22s10-20 22-20c188 0 342-154 342-342 0-12 8-22 20-22s22 10 22 22c0 212-172 384-384 384z" />
<glyph unicode="&#x54;" glyph-name="car-2" d="M1002 192h-20v128c0 48-38 86-86 86h-50l-80 158c-4 8-12 12-20 12h-404c-8 0-16-4-20-12l-80-158h-156c-48 0-86-38-86-86v-150c0-12 10-20 22-20h66c10-50 52-86 104-86s94 36 104 86h388c10-50 54-86 106-86 50 0 94 36 104 86h108c12 0 22 8 22 20s-10 22-22 22zM42 320c0 24 20 42 44 42h170c8 0 16 6 20 12l78 160h380l78-160c4-6 12-12 20-12h64c24 0 42-18 42-42v-128h-44c-10 48-54 86-104 86-52 0-96-38-106-86h-388c-10 48-52 86-104 86s-94-38-104-86h-46zM192 106c-36 0-64 30-64 64 0 36 28 64 64 64s64-28 64-64c0-34-28-64-64-64zM790 106c-36 0-64 30-64 64 0 36 28 64 64 64 34 0 64-28 64-64 0-34-30-64-64-64zM354 364c2 0 6-2 8-2 8 0 16 6 20 12l36 74h30c12 0 22 10 22 22s-10 20-22 20h-42c-8 0-16-4-20-12l-42-84c-6-10-2-24 10-30z" />
<glyph unicode="&#x55;" glyph-name="car-3" d="M1002 192h-20v192c0 12-10 22-22 22h-362v148c0 12-10 22-22 22h-234c-8 0-16-4-20-12l-80-158h-156c-48 0-86-38-86-86v-150c0-12 10-20 22-20h66c10-50 52-86 104-86s94 36 104 86h304c10-50 52-86 104-86s94 36 104 86h194c12 0 22 8 22 20s-10 22-22 22zM42 320c0 24 20 42 44 42h170c8 0 16 6 20 12l78 160h200v-150c0-12 10-22 22-22h362v-170h-130c-10 48-52 86-104 86s-94-38-104-86h-304c-10 48-52 86-104 86s-94-38-104-86h-46zM192 106c-36 0-64 30-64 64 0 36 28 64 64 64s64-28 64-64c0-34-28-64-64-64zM704 106c-36 0-64 30-64 64 0 36 28 64 64 64s64-28 64-64c0-34-28-64-64-64zM354 364c2 0 6-2 8-2 8 0 16 6 20 12l36 74h30c12 0 22 10 22 22s-10 20-22 20h-42c-8 0-16-4-20-12l-42-84c-6-10-2-24 10-30z" />
<glyph unicode="&#x56;" glyph-name="cog-double" d="M998 596l-52 30c4 24 4 48 0 70l52 30c4 2 8 8 10 14 0 4 0 10-2 16l-64 110c-4 6-8 8-14 10s-12 0-16-2l-48-30c-16 12-36 24-58 34v60c0 12-10 22-22 22h-128c-12 0-22-10-22-22v-56c-30-10-46-22-64-38l-52 30c-10 6-22 2-28-8l-66-110c-2-6-2-12-2-16 2-6 6-12 10-14l52-30c-4-24-4-46-2-70l-50-30c-4-2-8-6-10-12s0-12 2-16l64-112c4-6 10-10 18-10l-48-28c-16 12-34 22-58 34v60c0 12-10 22-22 22h-128c-12 0-20-10-20-22v-58c-30-8-48-22-64-36l-54 30c-10 6-22 2-28-8l-64-112c-4-4-4-10-2-16 0-6 4-10 10-12l50-30c-4-24-4-48 0-70l-52-30c-4-2-8-8-10-14 0-4 0-10 2-16l64-110c6-10 20-14 30-8l52 30c18-16 36-28 66-38v-56c0-12 8-22 20-22h128c12 0 22 10 22 22v60c24 10 42 22 58 34l48-30c6-2 12-4 16-2 6 2 12 4 14 10l64 110c6 10 2 24-8 30l-50 30c4 24 4 46 0 70l50 30c6 2 8 6 10 12s2 12-2 16l-64 112c-2 4-8 8-12 10-2 0-4 0-6 0l52 28c18-14 34-28 64-36v-58c0-12 10-22 22-22h128c12 0 22 10 22 22v60c24 12 42 22 58 34l48-30c4-2 10-2 16-2 6 2 10 6 14 10l64 112c6 10 2 22-8 28zM552 326l-46-26c-8-6-12-14-10-24 6-28 6-54 0-84-2-8 2-18 10-22l46-26-42-74-44 26c-8 4-18 4-24-2-16-14-40-30-72-44-8-2-12-10-12-18v-54h-86v54c0 10-8 18-16 20-38 8-52 20-74 42-6 6-16 6-24 2l-48-26-44 74 46 26c8 4 12 14 10 22-6 28-6 56 0 84 2 10-2 18-10 24l-46 26 44 74 48-26c8-6 18-4 26 2 20 20 34 34 72 42 8 2 16 10 16 20v52h86v-52c0-8 4-16 12-20 32-14 56-28 72-42 6-6 16-8 24-2l44 26zM916 496l-44 26c-8 6-18 4-26-2-14-14-38-28-70-42-8-4-14-12-14-20v-52h-84v52c0 10-8 18-18 20-36 8-50 22-72 42-8 6-18 8-26 2l-48-26-42 74 46 26c8 6 12 14 10 24-6 28-6 54 0 84 2 8-2 18-10 22l-46 26 44 74 46-26c8-4 20-2 26 4 22 18 36 32 72 40 10 2 18 10 18 20v54h84v-54c0-8 6-16 14-18 32-14 56-30 70-44 8-6 18-6 26-2l44 26 42-74-46-26c-8-4-12-14-10-22 6-28 6-56 0-84-2-10 2-18 10-24l46-26zM714 768c-58 0-106-48-106-106 0-60 48-108 106-108 60 0 108 48 108 108 0 58-48 106-108 106zM714 598c-34 0-64 28-64 64 0 34 30 64 64 64 36 0 64-30 64-64 0-36-28-64-64-64zM310 342c-60 0-108-48-108-108 0-58 48-106 108-106 58 0 106 48 106 106 0 60-48 108-106 108zM310 170c-36 0-64 30-64 64 0 36 28 64 64 64 34 0 64-28 64-64 0-34-30-64-64-64z" />
<glyph unicode="&#x57;" glyph-name="email" d="M1024 534c0 2-2 6-2 8 0 0 0 2-2 2 0 0 0 0 0 2 0 0-2 2-4 4 0 0 0 0-2 0l-490 342c-8 6-16 6-24 0l-490-340c0 0 0 0 0 0v-2c-2 0-2 0-2 0-2-2-4-2-4-4s0-2 0-2c-2 0-2-2-2-2 0-2-2-6-2-8 0 0 0 0 0 0v-470c0-48 38-86 86-86h852c48 0 86 38 86 86v470c0 0 0 0 0 0zM938 22h-852c-24 0-44 18-44 42v430l224-150c4-2 8-2 12-2 6 0 12 2 18 8 6 10 4 24-6 30l-230 154 452 314 452-314-230-154c-8-6-12-20-6-30 6-6 12-8 18-8 4 0 8 0 12 2l224 150v-430c0-24-20-42-44-42zM674 316c-4 2-8 4-12 4h-300c-4 0-8-2-12-4l-212-150c-10-6-12-20-6-28 6-10 20-12 30-6l208 146h284l208-146c4-2 8-4 12-4 8 0 14 4 18 10 6 8 4 22-6 28z" />
<glyph unicode="&#x58;" glyph-name="gearbox" d="M342 256c0-12 8-22 20-22s22 10 22 22v150h214v-150c0-12 8-22 20-22s22 10 22 22v150h214v-150c0-12 8-22 20-22s22 10 22 22v342c0 12-10 20-22 20s-20-8-20-20v-150h-214v150c0 12-10 20-22 20s-20-8-20-20v-150h-214v150c0 12-10 20-22 20s-20-8-20-20v-150h-64c-84 0-150 68-150 150 0 12-10 22-22 22s-20-10-20-22v0c0 0 0 0 0-2 0-104 86-190 192-190h64zM96 762v66h8l36-76c4-8 10-12 18-12 4 0 6 0 10 2 10 6 16 18 10 28l-30 64c18 8 32 26 32 60 0 54-34 66-64 66h-42c-12 0-22-10-22-22v-176c0-12 10-22 22-22s22 10 22 22zM96 918h20c18 0 22-4 22-24s-4-22-22-22h-20zM352 896v-134c0-12 10-22 22-22s20 10 20 22v176c0 8-4 16-12 20s-18 2-24-4l-20-20c-10-8-10-22-2-30 4-4 10-8 16-8zM650 42v92c0 10-6 18-16 22-8 2-18-2-24-8l-78-114c-4-6-4-14-2-22 4-6 12-10 20-10h56v-44c0-12 10-22 22-22s22 10 22 22v44c8 4 14 12 14 20 0 10-6 18-14 20zM852 86c-8 0-16-2-22-4 4 20 16 36 44 36 12 0 22 10 22 20 0 12-10 22-22 22-66 0-90-52-90-98v-50c0-44 28-74 68-74 42 0 68 30 68 74s-26 74-68 74zM852-18c-6 0-24 0-24 30 0 32 18 32 24 32s24 0 24-32c0-30-18-30-24-30zM850 784h-40c-12 0-20-10-20-22s8-22 20-22h40c36 0 58 26 58 66s-22 66-58 66h-18v46h56c12 0 20 8 20 20s-8 22-20 22h-78c-12 0-20-10-20-22v-88c0-12 8-22 20-22h40c4 0 16 0 16-22s-12-22-16-22zM432 96c0 34-28 64-62 64-36 0-64-28-64-62 0-12 8-22 20-22s22 8 22 20c0 12 10 20 22 20 10 0 20-8 20-20 0-6-2-10-4-12l-78-110c-4-8-4-16 0-22 4-8 10-12 18-12h84c12 0 22 10 22 20 0 12-10 22-22 22h-42l54 78c2 4 10 16 10 36zM598 780c-8 0-20 0-22 22 0 10-10 22-22 20s-20-10-20-22c2-38 26-64 64-64 46 0 62 36 62 68 0 14-4 32-14 44 10 14 14 30 14 46 0 30-16 66-62 66-38 0-62-24-64-62 0-12 8-22 20-22 12-2 22 8 22 20 2 22 14 22 22 22 6 0 20 0 20-24s-14-24-20-24c-12 0-22-10-22-22s10-22 22-22c6 0 20 0 20-24 0-22-14-22-20-22z" />
<glyph unicode="&#x59;" glyph-name="gauge" d="M784 548c-8 10-22 10-30 0l-198-198c-14 8-28 12-44 12-48 0-86-38-86-84 0-48 38-86 86-86s86 38 86 86c0 16-6 30-12 42l198 198c8 10 8 22 0 30zM512 234c-24 0-42 20-42 44 0 22 18 42 42 42s42-20 42-42c0-24-18-44-42-44zM192 278h-86c-12 0-20-10-20-22s8-22 20-22h86c12 0 22 10 22 22s-10 22-22 22zM810 256c0-12 10-22 22-22h86c12 0 20 10 20 22s-8 22-20 22h-86c-12 0-22-10-22-22zM788 392c4-8 12-14 20-14 2 0 6 0 8 2l78 32c12 6 16 18 12 28-4 12-16 16-28 12l-78-32c-12-6-16-18-12-28zM626 554c2-2 6-2 8-2 8 0 16 4 20 12l32 80c6 10 0 24-10 28-12 4-24-2-28-12l-34-78c-4-12 2-24 12-28zM512 576c12 0 22 10 22 22v84c0 12-10 22-22 22s-22-10-22-22v-84c0-12 10-22 22-22zM376 660c-4 10-16 16-28 12-10-4-16-18-10-28l32-80c4-8 12-12 20-12 2 0 6 0 8 2 10 4 16 16 12 28zM240 580c-8 8-22 8-30 0-8-10-8-22 0-32l60-60c4-4 10-6 16-6s10 2 14 6c10 8 10 22 0 30zM224 420l-78 32c-12 4-24 0-28-12-4-10 0-22 12-28l78-32c2-2 6-2 8-2 8 0 16 6 20 14 4 10 0 22-12 28zM512 790c-282 0-512-230-512-512v-192c0-12 10-22 22-22h980c12 0 22 10 22 22v192c0 282-230 512-512 512zM982 106h-940v172c0 258 212 468 470 468s470-210 470-468z" />
<glyph unicode="&#x5a;" glyph-name="garage" d="M1002 448c12 0 22 10 22 22v84c0 10-6 16-12 20l-492 214c-4 2-12 2-16 0l-492-214c-6-4-12-10-12-20v-84c0-12 10-22 22-22h64v-470h-64c-12 0-22-8-22-20s10-22 22-22h980c12 0 22 10 22 22s-10 20-22 20h-64v470zM42 540l470 204 470-204v-50h-940zM214-22v384h596v-384zM896-22h-42v406c0 12-10 22-22 22h-640c-12 0-22-10-22-22v-406h-42v470h768zM746 278h-468c-12 0-22-10-22-22s10-22 22-22h468c12 0 22 10 22 22s-10 22-22 22zM746 192h-468c-12 0-22-10-22-22s10-20 22-20h468c12 0 22 8 22 20s-10 22-22 22zM746 106h-468c-12 0-22-8-22-20s10-22 22-22h468c12 0 22 10 22 22s-10 20-22 20z" />
<glyph unicode="&#x5b;" glyph-name="twitter" d="M1016 768c-8 6-18 10-26 6-14-8-28-10-40-10 14 16 20 34 26 56l4 12c4 10 0 18-6 24-8 6-18 6-24 2-34-20-70-34-106-42-40 38-94 58-148 58-120 0-216-96-216-214 0-8 0-14 2-22-140 14-270 84-358 194-4 4-12 8-18 8-8-2-14-6-18-12-18-32-28-70-28-108 0-44 14-86 38-122-4 0-6 2-8 4-8 4-16 2-22-2s-10-12-10-20c0-68 34-132 86-172-4 0-10-2-12-6-6-6-8-14-6-22 22-68 78-120 146-140-68-40-148-56-228-46-10 0-20-6-24-14-2-10 2-20 10-26 92-58 198-90 308-90 358 0 574 292 574 572 0 6 0 10 0 16 4 2 8 6 14 10 34 22 68 46 90 80 6 8 6 18 0 26zM902 696c-8-6-18-10-26-16-4-4-8-12-8-18 0-8 0-16 0-26 0-260-198-530-530-530-72 0-144 16-210 44 78 8 150 36 214 86 6 6 10 14 6 24-2 8-10 14-20 14-62 2-118 36-148 88 20 0 40 2 60 8 10 2 16 12 16 22s-8 18-18 20c-68 14-122 68-134 138 20-8 40-12 62-12 10-2 18 6 22 14 2 10-2 20-10 24-48 32-76 86-76 144 0 20 4 40 10 60 102-112 244-178 394-186 6 0 12 2 16 8 6 4 6 12 6 18-4 12-6 26-6 40 0 94 78 172 174 172 48 0 92-20 126-54 4-6 12-8 20-6 26 4 54 12 80 24-6-10-14-16-30-24-6-4-10-12-10-20s6-14 12-18c14-8 28-12 42-12-10-10-22-18-34-26z" />
<glyph unicode="&#x5c;" glyph-name="faq" d="M512 922c-282 0-512-188-512-422 0-108 50-212 142-290l-102-206c-6-8-4-18 2-24 4-4 10-6 16-6 4 0 6 0 10 2l274 128c54-16 112-24 170-24 282 0 512 188 512 420 0 234-230 422-512 422zM512 122c-58 0-112 8-166 24-4 2-10 2-14 0l-228-106 84 166c4 8 2 20-6 26-90 72-140 168-140 268 0 210 212 380 470 380s470-170 470-380c0-208-212-378-470-378zM534 728c-84 0-150-68-150-152 0-12 10-22 22-22s20 10 20 22c0 60 50 110 108 110s106-48 106-106c0-58-48-106-106-106-12 0-22-8-22-20v-54c0-12 10-22 22-22s20 10 20 22v34c72 10 128 72 128 146 0 82-66 148-148 148zM576 304c0-24-20-42-42-42-24 0-44 18-44 42s20 42 44 42c22 0 42-18 42-42z" />
<glyph unicode="&#x5d;" glyph-name="google-plus" d="M388 342c-20 6-42 10-64 10h-2c-102 0-188-62-188-136 0-78 76-140 174-140 158 0 190 74 190 136 0 8 0 18-4 28-8 36-40 58-84 88l-16 12c-2 0-4 2-6 2zM454 230c0-6 2-12 2-18 0-24 0-94-148-94-74 0-130 44-130 98 0 48 68 94 144 94v20l2-20c16 0 32-4 48-8l14-10c38-26 62-42 68-62zM584 918h-260c-30 0-62-6-92-16-104-36-176-126-176-218 0-120 88-214 210-228 0-4 0-6 0-8 0-12 0-22 4-32-114-8-212-68-252-152-12-26-18-52-18-76 0-26 6-50 18-72 28-50 88-88 166-108 38-10 80-14 124-14 40 0 78 4 112 14 114 34 186 118 186 214 0 92-30 148-108 204-28 18-48 42-52 50 0 8 4 14 34 38 58 46 90 106 90 170 0 40-10 78-26 112 2 0 4 2 8 4l58 42c14 10 20 30 14 46-4 18-20 30-40 30zM526 834h-20c-8 0-16-4-20-12-2-8-2-16 4-22 24-30 38-72 38-116 0-52-26-100-74-136-40-32-50-46-50-76 2-26 46-66 68-82 68-46 92-90 92-168s-62-146-156-172c-66-20-146-18-214 0-66 16-116 48-138 86-8 16-14 34-14 52s6 38 14 58c36 76 134 128 244 128 8 0 16 4 20 12 4 6 4 14 0 20-8 14-12 28-12 42 0 6 2 14 4 22 0 6 0 12-4 18s-10 8-18 8c-110 4-192 82-192 188 0 74 62 148 148 178 26 8 52 12 78 12l260 2zM290 840c0 0 0 0 0 0-28 0-52-12-70-32-24-28-36-74-30-122 12-90 76-162 146-164 26 0 50 10 68 30 26 30 38 76 32 126-12 88-76 160-144 162zM394 672c4-36-4-72-22-92-10-10-22-16-36-16-46 2-94 60-102 126-6 38 2 70 18 90 10 12 22 16 38 16v0c48 0 94-58 104-124zM1002 576h-106v106c0 12-10 22-22 22h-84c-12 0-22-10-22-22v-106h-106c-12 0-22-10-22-22v-84c0-12 10-22 22-22h106v-106c0-12 10-22 22-22h84c12 0 22 10 22 22v106h106c12 0 22 10 22 22v84c0 12-10 22-22 22zM982 490h-108c-12 0-20-8-20-20v-108h-44v108c0 12-8 20-20 20h-108v44h108c12 0 20 8 20 20v108h44v-108c0-12 8-20 20-20h108z" />
<glyph unicode="&#x5e;" glyph-name="toolbox-2" d="M874 746h-192v64c0 60-48 108-106 108h-128c-58 0-106-48-106-108v-64h-192c-84 0-150-66-150-148v-428c0-82 66-148 150-148h724c84 0 150 66 150 148v428c0 82-66 148-150 148zM384 810c0 36 28 64 64 64h128c36 0 64-28 64-64v-64h-256zM982 170c0-58-48-106-108-106h-724c-60 0-108 48-108 106v428c0 58 48 106 108 106h724c60 0 108-48 108-106zM846 406c6 0 12 2 16 8s6 14 4 20c-22 60-78 100-140 100-58 0-110-34-136-86h-156c-26 52-78 86-136 86-64 0-120-50-140-100-2-6-2-14 2-20s12-8 18-8h92l26-22-26-22h-92c-6 0-14-2-18-8s-4-14-2-20c20-50 76-100 140-100 58 0 110 34 136 86h156c26-52 78-86 136-86 62 0 118 40 140 100 2 6 0 14-4 20s-10 8-16 8h-92l-26 22 26 22zM732 442l-50-44c-6-4-8-10-8-16s2-12 8-16l52-42c4-2 8-4 12-4h64c-20-26-50-42-84-42-46 0-86 28-100 70-4 8-12 14-20 14h-188c-8 0-16-6-20-14-14-42-54-70-100-70-32 0-62 18-82 42h62c4 0 8 2 12 4l52 42c4 4 8 10 8 16s-2 12-8 16l-50 44c-4 4-10 6-14 6h-62c20 24 50 42 82 42 46 0 86-28 100-70 4-8 12-14 20-14h188c8 0 16 6 20 14 14 42 54 70 100 70 34 0 64-16 84-42h-64c-4 0-10-2-14-6z" />
<glyph unicode="&#x5f;" glyph-name="water-drop" d="M512 256c129.408 0 234.667 105.301 234.667 234.667 0 123.051-208.256 425.941-217.088 438.784-8.021 11.52-27.136 11.52-35.115 0-8.875-12.843-217.131-315.733-217.131-438.784 0-129.365 105.259-234.667 234.667-234.667zM512 879.275c66.389-99.755 192-305.536 192-388.608 0-105.856-86.144-192-192-192s-192 86.144-192 192c0 83.029 125.611 288.896 192 388.608zM512 384c11.776 0 21.333 9.557 21.333 21.333s-9.557 21.333-21.333 21.333c-43.136 0-78.208 35.072-78.208 78.208 0 11.776-9.557 21.333-21.333 21.333s-21.333-9.557-21.333-21.333c0-66.645 54.229-120.875 120.875-120.875zM512 106.667c117.291 0 230.443 32.811 310.571 89.984 9.6 6.869 11.819 20.181 4.949 29.781-6.827 9.515-20.224 11.733-29.739 4.949-73.045-52.139-177.195-82.048-285.781-82.048-109.269 0-213.845 30.208-286.933 82.859-9.6 6.997-22.912 4.736-29.781-4.821s-4.693-22.869 4.821-29.739c80.213-57.813 193.877-90.965 311.893-90.965zM995.328 160.213c-7.424 9.173-20.821 10.453-29.995 3.072-110.848-90.197-276.096-141.952-453.333-141.952-178.603 0-344.619 52.395-455.424 143.701-9.088 7.552-22.528 6.187-30.037-2.859-7.509-9.131-6.229-22.528 2.901-30.037 118.315-97.536 294.229-153.472 482.56-153.472 186.88 0 361.941 55.253 480.256 151.552 9.131 7.424 10.496 20.864 3.072 29.995z" />
<glyph unicode="&#x60;" glyph-name="percent" d="M1018 954c-8 8-22 8-30 0l-982-982c-8-8-8-22 0-30 4-4 10-6 16-6 4 0 10 2 14 6l982 982c8 8 8 22 0 30zM214 576c94 0 170 76 170 170s-76 172-170 172c-94 0-172-78-172-172s78-170 172-170zM214 874c70 0 128-56 128-128 0-70-58-128-128-128-72 0-128 58-128 128 0 72 56 128 128 128zM810 320c-94 0-170-76-170-170s76-172 170-172c94 0 172 78 172 172s-78 170-172 170zM810 22c-70 0-128 56-128 128 0 70 58 128 128 128 72 0 128-58 128-128 0-72-56-128-128-128z" />
<glyph unicode="&#x61;" glyph-name="car-battery" d="M1002 704h-106v106c0 12-10 22-22 22h-170c-12 0-22-10-22-22v-106h-340v106c0 12-10 22-22 22h-170c-12 0-22-10-22-22v-106h-106c-12 0-22-10-22-22v-596c0-12 10-22 22-22h980c12 0 22 10 22 22v596c0 12-10 22-22 22zM726 790h128v-86h-128zM170 790h128v-86h-128zM982 106h-940v556h940zM342 448h-214c-12 0-22-10-22-22s10-20 22-20h214c12 0 20 8 20 20s-8 22-20 22zM810 534c0 12-8 20-20 20s-22-8-22-20v-86h-86c-12 0-20-10-20-22s8-20 20-20h86v-86c0-12 10-22 22-22s20 10 20 22v86h86c12 0 22 8 22 20s-10 22-22 22h-86z" />
<glyph unicode="&#x62;" glyph-name="car-key" d="M344 512c-8 8-20 8-30 0l-60-60c-8-10-8-22 0-32l60-60c4-4 10-6 16-6s10 2 14 6l62 60c8 10 8 22 0 32zM330 406l-30 30 30 30 30-30zM466 632c-8 8-22 8-30 0l-60-60c-10-8-10-22 0-30l60-60c4-4 10-6 14-6 6 0 12 2 16 6l60 60c8 8 8 22 0 30zM450 526l-30 30 30 30 30-30zM918 490h-22v58c50 24 86 76 86 134 0 84-68 150-150 150-12 0-24-2-34-4-24 52-76 90-136 90-84 0-150-68-150-150 0-4 0-10 2-14-28 16-60 24-94 24-50 0-100-20-136-56l-210-210c-76-76-76-198 0-272l60-60c36-36 84-56 136-56 50 0 98 20 136 56l210 210c36 38 56 86 56 136 0 34-8 66-24 94 4 0 8-2 14-2 12 0 22 2 34 4 22-52 74-88 136-88 8 0 14 0 22 2v-46h-22c-58 0-106-48-106-106v-128c0-12 8-22 20-22h64v-192c0-2 2-6 4-10l44-84c4-8 10-12 18-12 0 0 0 0 0 0 8 0 16 4 20 12l40 86c2 2 2 6 2 8v192h64c12 0 22 10 22 22v128c0 58-48 106-106 106zM586 420l-210-210c-58-56-156-56-212 0l-60 60c-58 58-58 154 0 212l210 210c28 28 66 44 104 44l-224-224c-20-20-32-48-32-76s12-56 32-76l60-60c22-20 48-30 76-30s54 10 76 30l224 224c0-38-16-76-44-104zM586 632c16-16 28-36 34-56l-244-246c-26-24-66-24-92 0l-60 60c-12 12-18 28-18 46s6 34 18 46l246 246c20-8 40-20 56-36l30-30c0 0 0 0 0 0zM662 662c-30 0-56 12-76 30v2c-20 18-32 44-32 74 0 58 48 106 108 106 42 0 80-26 96-62-44-26-76-74-76-130 0-6 2-12 2-18-6-2-14-2-22-2zM768 768c0-36-18-66-42-84 0 34 16 64 42 84zM832 576c-44 0-80 26-98 62 46 26 76 74 76 130 0 6 0 12-2 18 8 2 16 4 24 4 58 0 106-48 106-108 0-34-16-64-42-84v20c0 12-10 22-22 22s-20-10-20-22v-40c-8-2-14-2-22-2zM896 48l-20-42-22 42v186h42zM982 278h-214v106c0 36 28 64 64 64h22v-42c0-12 8-22 20-22s22 10 22 22v42h22c34 0 64-28 64-64z" />
<glyph unicode="&#x63;" glyph-name="electric-wrench" d="M1024 618c0 118-96 214-214 214h-384c-46 0-84-38-84-86h-108c-12 0-20-8-20-20v-108h-192c-12 0-22-8-22-20s10-22 22-22h192v-64c0-12 8-22 20-22h110c8-48 50-84 102-84h108v-64c0-12 10-22 22-22h88l56-256h-102c-12 0-20-10-20-22s8-20 20-20h256c0 0 2 0 2 0 12 0 20 8 20 20 0 4 0 8-2 10l-78 354c114 2 208 96 208 212zM256 704h86v-170h-86zM384 510v236c0 24 20 44 42 44h128v-342h-108c-34 0-62 28-62 62zM598 362v44h46l10-44zM790 64h-26l-76 342h84l76-342zM810 448h-212v342h212c94 0 172-78 172-172s-78-170-172-170z" />
<glyph unicode="&#x64;" glyph-name="check-shield" d="M412 348c4-4 10-6 14-6 6 0 12 2 16 6l320 298c8 8 8 22 0 30s-22 8-30 0l-304-284-92 92c-10 8-22 8-32 0-8-8-8-22 0-30zM918 960h-812c-12 0-20-10-20-22v-310c0-290 160-554 416-690 4-2 6-2 10-2s6 0 10 2c256 136 416 400 416 690v310c0 12-8 22-20 22zM896 628c0-270-146-518-384-646-238 128-384 376-384 646v290h768z" />
<glyph unicode="&#x65;" glyph-name="truck" d="M1002 790h-596c-12 0-22-10-22-22v-64h-170c-8 0-16-4-20-10l-104-190-84-84c-4-4-6-8-6-14v-236c0-12 10-20 22-20h86c10-50 54-86 106-86 50 0 94 36 104 86h388c10-50 54-86 104-86 52 0 96 36 106 86h86c12 0 22 8 22 20v598c0 12-10 22-22 22zM426 746h556v-468h-556zM706 192h-388c-4 16-10 30-20 42h428c-10-12-16-26-20-42zM122 476c2 0 2 2 4 4l100 182h158v-384h-342v118zM42 234h86c-8-12-16-26-20-42h-66zM214 106c-36 0-64 30-64 64 0 36 28 64 64 64 34 0 64-28 64-64 0-34-30-64-64-64zM810 106c-34 0-64 30-64 64 0 36 30 64 64 64 36 0 64-28 64-64 0-34-28-64-64-64zM916 192c-4 16-12 30-20 42h86v-42zM182 450c4-2 6-2 10-2 8 0 16 4 20 12l58 116h50c12 0 22 10 22 22s-10 20-22 20h-64c-8 0-16-4-20-12l-64-128c-4-10 0-22 10-28z" />
<glyph unicode="&#x66;" glyph-name="truck-tow" d="M182 322c4-2 6-2 10-2 8 0 16 4 20 12l58 116h50c12 0 22 10 22 22s-10 20-22 20h-64c-8 0-16-4-20-12l-64-128c-4-10 0-22 10-28zM1024 128v128c0 12-10 22-22 22h-310l204 542v-268c-48-10-86-56-86-110 0-60 50-112 108-112 62 0 106 40 106 96 0 12-10 22-22 22s-20-10-20-22c0-38-36-52-64-52-34 0-64 32-64 68 0 38 30 70 64 70 12 0 20 10 20 22v404c0 4 0 6 0 8-2 2-2 2-2 2-2 2-2 4-4 6 0 0 0 0-2 2 0 0-2 0-2 2 0 0-2 0-2 0s-2 0-2 0c-2 2-4 2-6 2 0 0 0 0 0 0-2 0-2 0-2 0-2 0-4 0-6-2 0 0-2 0-2 0-2-2-2-2-4-2 0-2-2-2-2-4 0 0-2 0-2 0l-474-632v234c0 12-8 22-20 22h-192c-8 0-16-4-20-10l-104-190-84-84c-4-4-6-8-6-14v-236c0-12 10-20 22-20h86c10-50 54-86 106-86 50 0 94 36 104 86h388c10-50 54-86 104-86 52 0 96 36 106 86h86c12 0 22 8 22 20zM982 150h-556v84h556zM706 64h-388c-4 16-10 30-20 42h428c-10-12-16-26-20-42zM846 806l-200-528h-198zM122 348c2 0 2 2 4 4l100 182h158v-384h-342v118zM42 106h86c-8-12-16-26-20-42h-66zM214-22c-36 0-64 30-64 64 0 36 28 64 64 64 34 0 64-28 64-64 0-34-30-64-64-64zM810-22c-34 0-64 30-64 64 0 36 30 64 64 64 36 0 64-28 64-64 0-34-28-64-64-64zM982 64h-66c-4 16-12 30-20 42h86z" />
<glyph unicode="&#x67;" glyph-name="clock" d="M512 960c-282 0-512-230-512-512s230-512 512-512c282 0 512 230 512 512s-230 512-512 512zM512-22c-258 0-470 212-470 470s212 470 470 470c258 0 470-212 470-470s-212-470-470-470zM586 404c6 14 12 28 12 44 0 48-38 86-86 86v148c0 12-10 22-22 22s-20-10-20-22v-160c-26-16-44-42-44-74 0-48 38-86 86-86 16 0 30 6 44 12l196-198c6-4 10-6 16-6s10 2 16 6c8 10 8 22 0 32zM470 448c0 24 18 42 42 42s42-18 42-42c0-12-4-22-12-30 0 0 0 0 0 0s0 0 0 0c-8-8-18-12-30-12-24 0-42 18-42 42z" />
<glyph unicode="&#x68;" glyph-name="phone-call" d="M732 270c-40 42-110 42-150 0l-16-16c-90 74-174 160-248 248l16 16c42 42 42 110 0 150l-90 92c-40 40-110 40-150 0l-50-50c-50-50-58-130-20-188 146-222 340-416 562-562 24-16 52-24 82-24 40 0 78 16 106 44l50 50c40 40 40 108 0 150zM792 60l-48-50c-36-36-94-40-134-14-216 144-406 334-550 550-28 42-22 98 14 134l50 48c12 14 28 20 44 20 18 0 34-6 46-20l90-90c26-24 26-66 0-90l-30-30c-8-8-8-20 0-28 82-102 178-198 280-280 8-8 20-8 28 0l30 30c24 24 66 24 90 0l90-90c26-24 26-66 0-90zM512 960c-12 0-22-10-22-22s10-20 22-20c258 0 470-212 470-470 0-12 8-22 20-22s22 10 22 22c0 282-230 512-512 512zM512 746c164 0 298-134 298-298 0-12 10-22 22-22s22 10 22 22c0 188-154 342-342 342-12 0-22-10-22-22s10-22 22-22zM512 576c70 0 128-58 128-128 0-12 10-22 22-22s20 10 20 22c0 94-76 170-170 170-12 0-22-8-22-20s10-22 22-22z" />
<glyph unicode="&#x69;" glyph-name="phone-circle" d="M512 960c-282 0-512-230-512-512s230-512 512-512c186 0 256 70 280 128 20 48 14 98 2 124l14 14c18 18 26 40 28 62 2 24-6 46-22 62l-68 66c-30 32-88 30-122-4l-12-12c-62 52-120 110-172 172l12 12c34 34 36 90 4 122l-66 68c-32 30-90 28-122-6l-42-40c-40-42-50-106-22-152 104-164 248-308 412-412 18-10 38-16 60-16 30 0 60 12 84 32 4-20 4-52-12-84-30-60-112-94-236-94-258 0-470 212-470 470s212 470 470 470c258 0 470-212 470-470 0-96-30-188-82-266-8-8-4-22 4-28 10-8 24-6 30 4 60 86 90 186 90 290 0 282-230 512-512 512zM640 176c-160 102-298 240-400 400-18 28-10 70 16 98l42 40c10 10 22 16 36 16 10 0 20-4 26-12l66-66c16-16 14-44-4-62l-26-24c-6-8-8-20 0-30 60-74 130-144 206-204 8-8 20-6 28 0l24 26c18 18 48 20 62 4l66-66c8-8 12-18 12-30-2-12-6-24-16-32l-40-42c-28-26-70-34-98-16z" />
<glyph unicode="&#x6a;" glyph-name="location-map" d="M640 898l256-184v-202c0-12 10-22 22-22s20 10 20 22v214c0 6-2 12-8 16l-298 214c-2 0-2 0-2 0-4 2-8 4-12 4s-8-2-10-4c0 0-2 0-2 0l-286-204-286 204c-6 4-16 6-22 2-8-4-12-12-12-20v-682c0-6 4-14 8-18l300-212c0-2 0 0 0-2 4-2 8-2 12-2s8 0 12 2c0 2 0 0 0 2l256 182c10 6 12 20 6 30-8 10-20 12-30 4l-222-158v630l256 184v-386c0-12 8-22 20-22s22 10 22 22zM42 898l256-184v-630l-256 182zM832 448c-106 0-192-86-192-192 0-100 158-290 176-312 4-6 10-8 16-8s12 2 16 8c18 22 176 212 176 312 0 106-86 192-192 192zM832-8c-54 66-150 200-150 264 0 82 68 150 150 150s150-68 150-150c0-64-96-198-150-264zM832 342c-48 0-86-38-86-86s38-86 86-86c48 0 86 38 86 86s-38 86-86 86zM832 214c-24 0-42 18-42 42s18 42 42 42c24 0 42-18 42-42s-18-42-42-42z" />
<glyph unicode="&#x6b;" glyph-name="car" d="M1002 192h-24l-30 182c-32 192-196 330-390 330-166 0-316-98-382-252l-20-48c-156-8-156-176-156-234 0-12 10-20 22-20h66c10-50 52-86 104-86s94 36 104 86h388c10-50 54-86 106-86 50 0 94 36 104 86h108c12 0 22 8 22 20s-10 22-22 22zM170 362c10 0 16 6 20 14l26 60c58 136 194 226 342 226 174 0 320-124 348-296l28-174h-40c-10 48-54 86-104 86-52 0-96-38-106-86h-388c-10 48-52 86-104 86s-94-38-104-86h-44c4 120 42 170 126 170zM192 106c-36 0-64 30-64 64 0 36 28 64 64 64s64-28 64-64c0-34-28-64-64-64zM790 106c-36 0-64 30-64 64 0 36 28 64 64 64 34 0 64-28 64-64 0-34-30-64-64-64zM278 406h192c12 0 20 8 20 20s-8 22-20 22h-156c36 56 96 112 166 124 12 4 20 14 18 26-4 12-14 20-26 16-104-18-180-108-214-178-4-6-2-14 2-20s10-10 18-10zM576 234c12 0 22 10 22 22v150h212c8 0 14 4 18 10s6 14 2 20c-42 88-140 182-254 182-12 0-22-8-22-20v-342c0-12 10-22 22-22zM774 448h-176v126c74-10 138-66 176-126z" />
<glyph unicode="&#x6c;" glyph-name="car-check" d="M976-28l-136 136c24 32 40 70 40 114 0 100-82 184-184 184s-184-84-184-184c0-102 82-184 184-184 42 0 82 16 112 40l136-136c6-4 10-6 16-6s10 2 16 6c8 8 8 22 0 30zM554 222c0 78 64 140 142 140s140-62 140-140c0-78-62-142-140-142s-142 64-142 142zM424 320h-338v42h170c12 0 22 10 22 22s-10 22-22 22h-170v54l72 74h622l80-80c8-8 22-8 30 0s8 22 0 30l-82 82-84 210c-4 8-12 14-20 14h-470c-8 0-16-6-20-14l-82-210-84-82c-4-4-6-8-6-14v-172c0-12 10-20 22-20h22v-64c0-12 8-22 20-22h128c12 0 22 10 22 22v64h168c12 0 22 8 22 20s-10 22-22 22zM250 746h440l68-170h-578zM214 234h-86v44h86z" />
<glyph unicode="&#x6d;" glyph-name="car-checklist" d="M804 314c-2 2-4 4-6 4-4 2-6 2-8 2h-610l70 170h142c12 0 22 10 22 22s-10 22-22 22h-158c-8 0-16-6-20-14l-82-210-84-82c-4-4-6-8-6-14v-172c0-12 10-20 22-20h22v-64c0-12 8-22 20-22h128c12 0 22 10 22 22v64h426v-64c0-12 10-22 22-22h128c12 0 22 10 22 22v64h20c12 0 22 8 22 20v172c0 6-2 10-6 14zM214-22h-86v44h86zM810-22h-84v44h84zM832 64h-746v42h170c12 0 22 10 22 22s-10 22-22 22h-170v54l72 74h622l74-74v-54h-172c-12 0-20-10-20-22s8-22 20-22h172v-42zM960 960h-470c-12 0-20-10-20-22v-554c0-12 8-22 20-22h470c12 0 22 10 22 22v554c0 12-10 22-22 22zM938 406h-426v512h426zM576 448h298c12 0 22 10 22 22v384c0 12-10 20-22 20h-298c-12 0-22-8-22-20v-384c0-12 10-22 22-22zM598 832h256v-342h-256zM776 804l-76-68-20 28c-6 10-18 12-28 6s-14-20-6-30l32-48c2-4 8-8 14-10 2 0 2 0 4 0 4 0 10 2 14 6l94 84c8 8 10 20 2 30-8 8-22 10-30 2zM776 676l-76-66-20 26c-6 10-18 14-28 6-10-6-14-20-6-28l32-48c2-6 8-10 14-10 2 0 2 0 4 0 4 0 10 2 14 4l94 84c8 8 10 22 2 30-8 10-22 10-30 2z" />
<glyph unicode="&#x6e;" glyph-name="car-fix" d="M1002-22h-20v748c0 12-10 20-22 20h-86c-12 0-20-8-20-20v-236h-86v44h22c12 0 20 8 20 20v128c0 6-2 12-6 16l-80 80-42 166c-2 10-10 16-20 16h-300c-10 0-18-6-20-16l-42-166-80-80c-4-4-6-10-6-16v-128c0-12 8-20 20-20h22v-44h-86v236c0 12-8 20-20 20h-86c-12 0-22-8-22-20v-748h-20c-12 0-22-8-22-20s10-22 22-22h170c12 0 22 10 22 22s-10 20-22 20h-22v470h684v-470h-22c-12 0-22-8-22-20s10-22 22-22h170c12 0 22 10 22 22s-10 20-22 20zM86-22v726h42v-726zM380 918h264l32-128h-328zM328 746h368l72-72v-12h-86c-12 0-20-10-20-22s8-22 20-22h86v-42h-512v42h86c12 0 20 10 20 22s-8 22-20 22h-86v12zM640 534v-44h-256v44zM298 490v44h44v-44zM682 490v44h44v-44zM896-22v726h42v-726zM512 278c-48 0-86-38-86-86s38-86 86-86c48 0 86 38 86 86s-38 86-86 86zM512 150c-24 0-42 18-42 42s18 42 42 42c24 0 42-18 42-42s-18-42-42-42zM708 152l-30 16c2 8 2 16 2 24s0 16-2 24l30 16c10 6 12 20 8 30l-44 74c-2 4-8 8-12 10-6 2-12 0-18-2l-26-18c-12 10-26 18-40 24v34c0 12-10 22-22 22h-84c-12 0-22-10-22-22v-34c-16-6-30-14-42-24l-30 18c-10 6-24 2-30-8l-42-74c-4-6-4-12-2-16 0-6 4-10 10-14l28-16c0-8-2-16-2-24s0-16 2-24l-30-16c-4-4-8-8-10-14 0-4 0-10 2-16l44-74c6-10 18-14 28-8l32 18c12-10 26-18 42-24v-34c0-12 10-22 22-22h84c12 0 22 10 22 22v34c14 6 28 14 40 24l28-18c4-2 10-2 16-2 6 2 10 6 14 10l42 74c6 10 2 24-8 30zM646 88l-22 14c-8 4-18 4-26-2-14-14-32-24-50-30-8-4-14-12-14-22v-26h-44v26c0 10-6 18-14 22-20 6-40 16-54 30-6 6-16 6-24 2l-26-14-22 38 24 12c8 6 12 16 10 24-2 10-2 20-2 30s0 20 2 30c2 8-2 18-10 22l-24 14 22 38 26-14c8-4 18-4 24 2 14 14 34 24 54 30 8 4 14 12 14 22v26h44v-26c0-10 6-18 14-22 18-6 36-16 50-30 8-6 18-6 26-2l22 14 22-38-24-12c-8-6-12-16-10-24 2-10 2-20 2-30s0-20-2-30c-2-8 2-18 10-22l24-14z" />
<glyph unicode="&#x6f;" glyph-name="service-24h" d="M538 874c-118-4-232-58-310-150-64-74-98-168-102-268l-86 132c-8 10-20 12-30 6s-12-20-6-30l128-192c4-6 10-8 16-10 0 0 0 0 2 0 6 0 12 4 16 8l148 170c8 10 8 22-2 30-8 8-22 8-30-2l-114-130c0 98 32 188 92 258 70 82 172 132 280 136 212 8 390-158 398-370 4-102-32-200-102-276-70-74-164-118-268-122-154-6-296 82-362 222-4 12-18 16-28 10-10-4-16-16-10-28 70-150 220-246 386-246 6 0 12 0 16 0 114 4 220 52 298 136 76 84 118 192 114 306-10 234-208 418-444 410zM342 234c-12 0-22-8-22-20s10-22 22-22c50 0 94 36 104 86h218c10-50 52-86 104-86 12 0 22 10 22 22s-10 20-22 20c-36 0-64 30-64 64 0 36 28 64 64 64 12 0 22 10 22 22s-10 22-22 22c-52 0-94-38-104-86h-218c-10 48-54 86-104 86-12 0-22-10-22-22s10-22 22-22c34 0 64-28 64-64 0-34-30-64-64-64zM664 676c-8 2-18 0-24-8l-74-108c-6-6-6-16-2-22 4-8 10-12 18-12h54v-40c0-12 10-22 22-22s22 10 22 22v42c8 2 14 10 14 20 0 8-6 16-14 20v88c0 10-6 18-16 20zM420 498c-4-6-6-16-2-22 4-8 12-12 20-12h82c10 0 20 10 20 22s-10 20-20 20h-42l52 74c4 6 10 18 10 36 0 34-26 62-62 62-32 0-60-26-62-60 0-12 10-22 22-22 10 0 20 8 22 20 0 10 8 18 18 18 12 0 20-8 20-18 0-6-2-10-4-12z" />
<glyph unicode="&#x70;" glyph-name="car-oil" d="M554 320h-468v42h170c12 0 22 10 22 22s-10 22-22 22h-170v54l72 74h622l80-80c8-8 22-8 30 0s8 22 0 30l-82 82-84 210c-4 8-12 14-20 14h-470c-8 0-16-6-20-14l-82-210-84-82c-4-4-6-8-6-14v-172c0-12 10-20 22-20h22v-64c0-12 8-22 20-22h128c12 0 22 10 22 22v64h298c12 0 20 8 20 20s-8 22-20 22zM250 746h440l68-170h-578zM214 234h-86v44h86zM786 440c-8 10-28 10-36 0-16-24-166-226-166-320 0-102 82-184 184-184s184 82 184 184c0 94-150 296-166 320zM768-22c-78 0-142 64-142 142 0 60 92 198 142 270 50-72 142-210 142-270 0-78-64-142-142-142zM726 168c0 12-10 22-22 22s-22-10-22-22c0-50 20-100 54-140 4-4 10-6 16-6 4 0 10 2 14 4 8 8 10 22 2 30-28 32-42 72-42 112z" />
<glyph unicode="&#x71;" glyph-name="car-lock" d="M470 320h-428v42h172c12 0 20 10 20 22s-8 22-20 22h-172v54l74 74h630c4 0 8 0 10 2 0 0 2 0 2 2 2 0 4 2 6 4 0 0 0 0 0 0 0 2 0 2 0 2 2 2 2 4 4 6 0 2 0 2 0 4 0 0 0 0 0 0 0 2 0 6-2 8 0 0 0 0 0 0v0l-84 214c-4 8-12 14-20 14h-470c-8 0-16-6-20-14l-84-210-82-82c-4-4-6-10-6-14v-172c0-12 10-20 22-20h20v-64c0-12 10-22 22-22h128c12 0 22 10 22 22v64h256c12 0 20 8 20 20s-8 22-20 22zM206 746h440l70-170h-578zM170 234h-84v44h84zM1002 320h-64v22c0 82-66 148-148 148-84 0-150-66-150-148v-22h-64c-12 0-22-10-22-22v-340c0-12 10-22 22-22h426c12 0 22 10 22 22v340c0 12-10 22-22 22zM682 342c0 58 48 106 108 106 58 0 106-48 106-106v-22h-214zM982-22h-384v300h62c2 0 2 0 2 0s0 0 0 0h254c2 0 2 0 2 0s0 0 0 0h64zM790 214c-24 0-44-20-44-44 0-14 10-28 22-36v-70c0-12 10-22 22-22s20 10 20 22v70c14 8 22 20 22 36 0 24-20 44-42 44z" />
<glyph unicode="&#x72;" glyph-name="car-music" d="M932 528l-82 82-84 208c-2 8-10 14-20 14h-468c-10 0-18-6-20-14l-84-208-82-82c-4-4-6-10-6-16v-170c0-12 8-22 20-22h22v-64c0-12 10-22 22-22h128c12 0 20 10 20 22v64h170c12 0 20 10 20 22s-8 20-20 20h-340v44h170c12 0 22 8 22 20s-10 22-22 22h-170v56l72 72h624l78-80c8-8 22-8 30 0 8 10 8 22 0 32zM256 320v-42h-86v42zM224 618l68 172h440l68-172zM780 530l-256-118c-8-4-12-12-12-20v-244h-42c-48 0-86-38-86-84 0-48 38-86 86-86 44 0 84 40 84 86v316l214 98v-200h-42c-48 0-86-38-86-86 0-46 38-86 86-86 44 0 84 40 84 86v320c0 6-4 14-10 18s-14 4-20 0zM512 64c0-20-18-44-42-44s-44 20-44 44c0 24 20 42 44 42h42zM768 192c0-20-18-42-42-42s-44 18-44 42c0 24 20 42 44 42h42z" />
<glyph unicode="&#x73;" glyph-name="car-setting" d="M382 320h-296v42h170c12 0 22 10 22 22s-10 22-22 22h-170v54l72 74h622l80-80c8-8 22-8 30 0s8 22 0 30l-82 82-84 210c-4 8-12 14-20 14h-470c-8 0-16-6-20-14l-82-210-84-82c-4-4-6-8-6-14v-172c0-12 10-20 22-20h22v-64c0-12 8-22 20-22h128c12 0 22 10 22 22v64h126c12 0 22 8 22 20s-10 22-22 22zM250 746h440l68-170h-578zM214 234h-86v44h86zM982 136c-2 6-6 10-10 12l-34 20c0 8 2 16 2 24s-2 16-2 24l34 20c10 6 14 18 8 28l-64 112c-4 4-8 8-14 10-4 0-10 0-16-2l-34-20c-12 8-26 16-40 24v38c0 12-10 22-22 22h-128c-12 0-20-10-20-22v-38c-14-6-28-14-42-24l-34 20c-10 6-24 2-30-8l-64-112c-6-10-2-22 8-28l34-20c0-8-2-16-2-24s2-16 2-24l-34-20c-4-2-8-8-10-12-2-6 0-12 2-16l64-112c6-10 20-14 30-8l34 20c14-10 28-18 42-24v-38c0-12 8-22 20-22h128c12 0 22 10 22 22v38c14 8 28 16 40 24l34-20c6-2 12-2 16-2 6 2 10 6 14 10l64 112c2 4 4 10 2 16zM890 48l-28 16c-8 6-18 4-26-2-14-12-32-24-52-30-10-4-14-12-14-20v-34h-86v34c0 8-6 16-14 20-20 6-40 18-54 30-8 6-18 8-26 2l-28-16-42 74 28 16c8 4 12 14 10 22-2 12-2 22-2 32s0 20 2 32c2 8-2 16-10 22l-28 16 42 74 28-16c8-6 18-4 26 2 14 12 34 24 54 30 8 4 14 12 14 20v34h86v-34c0-8 4-16 14-20 20-6 38-18 52-30 8-6 18-8 26-2l28 16 42-74-28-16c-8-6-12-14-10-22 2-12 2-22 2-32s0-20-2-32c-2-8 2-16 10-22l28-16zM726 298c-58 0-106-48-106-106s48-106 106-106c58 0 106 48 106 106s-48 106-106 106zM726 128c-36 0-64 28-64 64s28 64 64 64c36 0 64-28 64-64s-28-64-64-64z" />
<glyph unicode="&#x74;" glyph-name="check" d="M710 612l-304-284-92 92c-8 8-22 8-30 0s-8-22 0-30l106-106c4-4 10-6 16-6 4 0 10 2 14 6l320 298c8 8 8 22 0 30s-20 8-30 0zM512 960c-282 0-512-230-512-512s230-512 512-512c282 0 512 230 512 512s-230 512-512 512zM512-22c-258 0-470 212-470 470s212 470 470 470c258 0 470-212 470-470s-212-470-470-470z" />
<glyph unicode="&#x75;" glyph-name="eco-fuel" d="M974 752c10 8 10 22 2 30s-22 10-30 2c-50-46-136-126-136-166v-320c0-34-28-64-64-64h-20v620c0 12-10 20-22 20h-640c-12 0-22-8-22-20v-896c0-12 10-22 22-22h640c12 0 22 10 22 22v234h20c60 0 108 48 108 106v116l72 36c8 4 12 12 12 20v84c0 12-8 22-20 22h-64v42c2 18 64 84 120 134zM682 832v-298h-596v298zM86-22v512h596v-512zM896 482l-42-20v72h42zM150 576h468c12 0 22 10 22 22v170c0 12-10 22-22 22h-468c-12 0-22-10-22-22v-170c0-12 10-22 22-22zM170 746h428v-128h-428zM510 448c-6 0-14 0-18-4-38-28-72-38-108-46-32-10-64-18-98-38-36-26-58-60-58-94 0-22 8-50 42-80-50-66-74-132-76-136-4-10 0-24 12-28 2 0 4 0 8 0 8 0 16 4 20 14 0 0 22 56 62 114 28-42 60-52 86-52 34 0 70 18 102 50 50 54 80 200 40 288-2 6-8 10-14 12zM452 178c-22-24-48-38-70-38-24 0-42 16-56 46 24 28 54 54 88 72 12 6 16 18 10 28-4 12-18 16-28 10-38-18-72-46-98-76-14 12-26 28-26 46 0 20 14 42 38 58 26 16 54 24 84 32s64 16 100 38c18-72-6-178-42-216z" />
<glyph unicode="&#x76;" glyph-name="eco-fuel-barrel" d="M980 408c-2 6-6 12-10 16-6 2-14 4-20 0-58-24-110-20-158-18-56 0-112 4-166-30-48-30-74-66-74-106 0-36 22-72 68-104-84-86-144-178-148-184-8-10-4-22 4-30 4-2 8-2 12-2 8 0 14 2 18 8 2 2 58 86 134 166 18-86 62-106 98-106 26 0 56 10 90 30 84 52 174 236 152 360zM804 84c-26-16-48-24-66-24-34 0-54 34-62 102 54 52 114 96 170 108 12 4 20 14 16 26-2 12-14 18-26 16-62-14-128-62-186-116-36 26-56 52-56 74 0 32 34 56 54 70 32 18 68 22 110 22 10 0 22 0 34 0 44 0 92-4 148 14 4-106-70-250-136-292zM448 278h-278v256h598v-44c0-12 10-20 22-20s20 8 20 20v44h64c12 0 22 8 22 20s-10 22-22 22h-64v256h64c12 0 22 10 22 22s-10 20-22 20h-106v64c0 12-10 22-22 22h-170c-12 0-22-10-22-22v-64h-490c-12 0-22-8-22-20s10-22 22-22h64v-256h-64c-12 0-22-10-22-22s10-20 22-20h64v-256h-64c-12 0-22-10-22-22s10-22 22-22h64v-256h-64c-12 0-22-8-22-20s10-22 22-22h320c12 0 22 10 22 22s-10 20-22 20h-214v256h278c12 0 22 10 22 22s-10 22-22 22zM598 918h128v-44h-128zM170 832h598v-256h-598z" />
<glyph unicode="&#x77;" glyph-name="eco-globe" d="M1018 186c-50 50-94 64-150 48l-156-52c-6 28-30 52-72 52h-120c-32 30-104 86-200 86h-106v22c0 12-10 20-22 20h-170c-12 0-22-8-22-20v-342c0-12 10-22 22-22h170c12 0 22 10 22 22v34c42-14 80-28 112-38 104-38 164-58 216-58 66 0 122 30 246 96 58 32 130 70 224 118 6 2 10 8 12 16 0 6-2 12-6 18zM170 22h-128v298h128zM768 72c-210-114-210-112-428-36-36 12-78 26-126 44v198h106c88 0 154-56 176-80 4-4 10-6 16-6h128c22 0 30-12 30-22s-8-20-30-20h-234c-12 0-22-10-22-22s10-22 22-22h234c28 0 46 12 58 26l182 60c28 8 52 8 86-16-82-42-146-76-198-104zM302 420c10 4 14 18 10 28-24 46-34 94-34 144 0 176 142 320 320 320 2 0 4 0 8 0-34-16-62-38-60-70 2-22 12-40 30-48 14-8 30-10 48-4 0-10 0-28-2-46-6 0-12-2-18-4-22-4-48-10-62-2-2 4-6 10-12 14-16 14-44 18-86 10-90-18-90-136-90-140 0-28 14-82 66-82 8 0 16 2 24 2 14 0 32 2 38-4 4-2 6-10 6-20 0-6 2-12 6-16 10-10 22-26 22-28 0-4-2-10-4-14-4-8-10-18-10-32 0-16 30-94 66-94 64 0 104 30 110 80 10 6 24 14 38 30 10 8 14 18 14 28 0 16-10 24-18 32 4 2 8 6 10 10 28 28 80 82 38 122-6 8-16 8-24 4-4-2-12-4-16-4-6 20-12 36-18 44 16 8 42 16 68 10 6-2 10 0 14 2 40 20 62 56 74 86 38-54 60-116 60-186 0-112-60-218-158-276-10-6-12-18-6-28 4-8 10-10 18-10 4 0 8 0 10 2 110 66 178 184 178 312 0 92-36 176-92 240-2 4-4 4-6 6-42 46-98 82-160 102 0 0 0 0-2 0-32 10-66 14-102 14-200 0-364-162-364-362 0-58 14-112 40-162 4-12 18-16 28-10zM826 816c-6-20-20-62-54-82-52 8-104-18-118-36-6-6-8-18-4-26 2-4 8-8 14-10 4-8 12-28 16-46 2-4 4-6 6-10 14-12 32-14 46-12-6-14-30-38-40-50-18-18-26-28-26-42s10-24 16-30c2 0 2 0 2 0-18-18-34-22-34-22-8-4-14-12-14-22 0-12 0-50-64-52-10 10-26 44-28 52 0 4 4 10 6 14 4 8 10 18 10 32 0 18-18 38-30 52-2 20-8 34-18 44-20 18-46 16-72 14-6 0-14 0-20 0-24 0-24 36-24 38 0 0 2 86 58 98 32 6 46 2 48 0 2-4 4-6 6-10 30-28 74-18 106-10 10 2 22 4 28 4 10 0 20 8 20 18 10 60 4 98-12 110-10 6-22 8-32 2-10-4-18-6-22-4-6 4-6 12-8 16 0 12 48 36 108 50 50-16 94-44 130-80z" />
<glyph unicode="&#x78;" glyph-name="eco-car" d="M980 222c-2 2-2 4-4 6l-126 126-84 168c-4 6-12 12-20 12h-468c-8 0-16-6-20-12l-84-168-126-126c-2-2-2-4-4-6 0-4-2-6-2-8v-172c0-12 10-20 22-20h22v-64c0-12 8-22 20-22h128c12 0 22 10 22 22v64h86v-22c0-12 8-22 20-22h300c12 0 20 10 20 22v22h86v-64c0-12 10-22 22-22h128c12 0 20 10 20 22v64h22c12 0 22 8 22 20v172c0 2-2 4-2 8zM938 150h-128v42h128zM290 490h444l64-128h-572zM214 192v-42h-128v42zM214-22h-86v44h86zM640 22h-256v84h256zM896-22h-86v44h86zM918 64h-236v64c0 12-8 22-20 22h-300c-12 0-20-10-20-22v-64h-256v42h148c12 0 22 10 22 22v86c0 12-10 20-22 20h-118l84 86h624l84-86h-118c-12 0-22-8-22-20v-86c0-12 10-22 22-22h148v-42zM512 278c-12 0-22-10-22-22v-42c0-12 10-22 22-22s22 10 22 22v42c0 12-10 22-22 22zM214 632c4 0 8 0 10 2s90 50 192 90c-12-48-10-84 8-110 20-28 54-42 102-42 8 0 16 0 26 0 98 10 260 134 296 256 2 6 2 12-2 18-4 4-10 8-16 8-58 6-106 30-152 54-52 26-100 52-162 48-56-6-96-28-112-62-18-32-12-74 14-124-112-40-208-94-214-98-12-6-14-20-8-30 4-6 10-10 18-10zM442 874c14 28 56 36 78 38 4 0 10 2 14 2 42 0 80-20 124-44 42-22 86-46 140-54-44-96-174-194-250-200-8-2-16-2-22-2-34 0-56 8-66 24-14 20-10 56 6 102 72 24 146 36 202 24 10-4 22 4 26 16 2 10-6 22-16 24-62 16-142 2-218-22-22 40-30 72-18 92z" />
<glyph unicode="&#x79;" glyph-name="eco-nature" d="M370 480c40 0 74 22 100 68 64-114 84-206 86-208 2-10 10-16 18-16 2 0 2 0 2 0 8 0 16 4 20 14 0 0 22 56 64 114 26-42 58-52 84-52 34 0 72 18 102 50 52 54 80 200 40 288-2 6-8 10-14 12-6 0-12 0-18-4-38-28-72-38-108-48-32-8-64-16-96-38-38-24-58-58-58-92 0-22 8-50 42-80-24-28-40-58-54-82-14 42-38 104-78 174 42 24 68 54 76 88 10 42-6 90-48 140-40 46-94 62-150 78-48 16-100 32-144 68-6 6-12 6-18 6-6-2-12-6-14-12-60-110-32-314 32-388 32-36 78-80 134-80zM634 568c0 20 14 42 40 58s54 24 82 32c30 8 64 16 100 38 18-72-6-178-42-216-22-24-48-38-70-38s-42 16-56 46c24 28 54 54 90 72 10 6 14 18 10 28-6 12-18 16-30 10-38-18-70-46-98-76-14 12-26 26-26 46zM230 906c46-32 94-46 138-60 52-16 98-30 128-66 24-26 48-66 40-102-4-24-24-44-56-62-40 62-90 126-156 186-10 8-24 8-32-2-6-8-6-22 2-30 64-56 112-120 150-178-20-46-46-70-74-70-30 0-66 24-102 64-48 60-74 220-38 320zM1018 186c-50 50-94 64-150 48l-156-52c-6 28-30 52-72 52h-120c-32 30-104 86-200 86h-106v22c0 12-10 20-22 20h-170c-12 0-22-8-22-20v-342c0-12 10-22 22-22h170c12 0 22 10 22 22v34c42-14 80-28 112-38 104-38 164-58 216-58 66 0 122 30 246 96 58 32 130 70 224 118 6 2 10 8 12 16 0 6-2 12-6 18zM170 22h-128v298h128zM768 72c-210-114-210-112-428-36-36 12-78 26-126 44v198h106c88 0 154-56 176-80 4-4 10-6 16-6h128c22 0 30-12 30-22s-8-20-30-20h-234c-12 0-22-10-22-22s10-22 22-22h234c28 0 46 12 58 26l182 60c28 8 52 8 86-16-82-42-146-76-198-104z" />
<glyph unicode="&#x7a;" glyph-name="inflator-pump" d="M1002 788h-128c-12 0-20-10-20-20v-22h-150c-12 0-22-10-22-22v-128c0-12 10-20 22-20h64v-128c0-190-154-342-342-342v534c0 10-8 20-20 20h-108v128h236c12 0 20 10 20 22v128c0 12-8 22-20 22h-512c-12 0-22-10-22-22v-128c0-12 10-22 22-22h234v-128h-106c-12 0-22-10-22-20v-576h-22c-34 0-64-30-64-64 0-36 30-64 64-64h342c36 0 64 28 64 64 0 34-28 64-64 64h-22c212 0 384 172 384 384v128h44v-22c0-12 8-22 20-22h128c12 0 22 10 22 22v214c0 10-10 20-22 20zM42 916h470v-84h-470zM170 618h214v-554h-214zM448 20c12 0 22-10 22-20 0-12-10-22-22-22h-342c-12 0-20 10-20 22 0 10 8 20 20 20zM726 618v86h128v-86zM982 576h-86v170h86z" />
<glyph unicode="&#x7b;" glyph-name="check-2" d="M1018 730l-150 150c-8 8-22 8-30 0l-518-520-134 136c-8 8-22 8-30 0l-150-150c-8-8-8-22 0-30l298-300c6-4 10-6 16-6s10 2 16 6l682 684c8 8 8 22 0 30zM320 62l-268 268 118 120 134-134c10-8 22-8 32 0l518 518 118-120z" />
<glyph unicode="&#x7c;" glyph-name="checklist" d="M894 690c0 4-2 6-4 8l-256 256c-2 2-4 4-8 4-2 2-4 2-8 2h-468c-12 0-22-10-22-22v-980c0-12 10-22 22-22h724c12 0 22 10 22 22v724c0 4 0 6-2 8zM640 888l184-184h-184zM170-22v940h428v-236c0-12 8-20 20-20h236v-684zM704 534h-170c-12 0-22-10-22-22s10-22 22-22h170c12 0 22 10 22 22s-10 22-22 22zM704 362h-170c-12 0-22-8-22-20s10-22 22-22h170c12 0 22 10 22 22s-10 20-22 20zM704 192h-170c-12 0-22-10-22-22s10-20 22-20h170c12 0 22 8 22 20s-10 22-22 22zM432 612l-90-92-50 50c-8 8-22 8-30 0s-8-22 0-30l64-64c4-4 10-6 16-6 4 0 10 2 14 6l108 106c8 8 8 22 0 30-10 8-22 8-32 0zM432 442l-90-92-50 50c-8 8-22 8-30 0-8-10-8-22 0-32l64-64c4-4 10-6 16-6 4 0 10 2 14 6l108 108c8 8 8 22 0 30-10 8-22 8-32 0zM432 272l-90-92-50 48c-8 8-22 8-30 0s-8-22 0-30l64-64c4-4 10-6 16-6 4 0 10 2 14 6l108 106c8 10 8 22 0 32-10 8-22 8-32 0z" />
<glyph unicode="&#x7d;" glyph-name="payment" d="M938 832h-640c-46 0-84-38-84-86v-50c-86-18-214-80-214-298v-142c0-130 106-234 234-234h320c48 0 86 38 86 84 0 16-4 30-12 44h98c46 0 84 38 84 84 0 16-4 30-12 44h140c48 0 86 38 86 84v384c0 48-38 86-86 86zM256 746c0 24 20 44 42 44h640c24 0 44-20 44-44v-84h-484c-18 28-56 42-92 42h-128c-6 0-14 0-22 0zM768 234c0-22-20-42-42-42h-278c-12 0-22-10-22-22s10-20 22-20h106c24 0 44-20 44-44 0-22-20-42-44-42h-320c-106 0-192 86-192 192v142c0 244 180 264 236 264h128c26 0 64-12 64-44v-20c0-34-42-44-64-44h-86c-10 0-18-6-20-14-12-38-52-134-108-134-12 0-22-10-22-22s10-22 22-22c8 0 14 2 22 4v-4c0-46 38-84 84-84h428c22 0 42-20 42-44zM938 320h-640c-22 0-42 20-42 42v24c44 34 70 96 80 126h70c52 0 106 30 106 86v20h470v-256c0-22-20-42-44-42zM918 576h-128c-12 0-22-10-22-22s10-20 22-20h128c12 0 20 8 20 20s-8 22-20 22z" />
<glyph unicode="&#x7e;" glyph-name="shopping-cart" d="M1002 918h-128c-10 0-18-8-20-18l-52-218-148 144c-8 8-20 8-30 0l-36-36h-204c-12 0-22-10-22-22v-106h-92l-122 272c-2 6-8 10-12 12-6 2-12 2-18-2l-106-50c-10-6-14-18-10-28l92-204h-52c-6 0-12-4-16-10s-6-12-4-18l128-384c4-10 12-16 20-16h528l-10-42h-454c-46 0-84-38-84-86 0-46 38-84 84-84 48 0 86 38 86 84 0 16-4 30-12 44h322c-6-14-12-28-12-44 0-46 38-84 86-84s86 38 86 84c0 38-26 70-60 82l14 58c2 2 2 6 2 10 0 0 0 0 0 2l146 616h110c12 0 22 10 22 22s-10 22-22 22zM640 780l122-118h-242l92 90c0 0 0 0 0 0zM406 746h140l-86-84h-54zM50 864l68 32 106-234h-82zM186 278l-114 340h56c0 0 0 0 0 0h660l-80-340zM278 106c0-22-20-42-44-42-22 0-42 20-42 42 0 24 20 44 42 44 24 0 44-20 44-44zM746 106c0-22-18-42-42-42s-42 20-42 42c0 24 18 44 42 44s42-20 42-44z" />
</font>
</defs>
</svg>
